Прихована краса / Collateral Beauty (2016) 1080p H.265 Ukr/Eng | Sub Eng

Нові коментарі

Нова тема   Відповісти
Автор Повідомлення
Anonymous 







2019-02-04 13:38  
Прихована краса / Collateral Beauty (2016) 1080p H.265 Ukr/Eng | Sub Eng

Прихована краса / Collateral Beauty (2016) 1080p H.265 Ukr/Eng | Sub Eng


Жанр: драма
Країна: США
Кінокомпанія: Warner Bros. Pictures, New Line Cinema, Village Roadshow Pictures
Режисер: Девід Френкел
Актори: Вілл Сміт, Едвард Нортон, Кіра Найтлі, Майкл Пенья, Наомі Гарріс, Джейкоб Латімор, Кейт Вінслет, Гелен Міррен, Кайлі Роджерс, Енн Дауд

Сюжет:
Головний герой Говард працює в рекламному агентстві в Нью-Йорку. Не так давно в його особистому житті сталася трагедія, яка шокувала і призвела до тяжкої депресії: померла його дочка. Колеги намагаються допомогти і розробляють нетрадиційний план, щоб повернути другу ґрунт під ногами, але те, як спрацьовує план, стає повною несподіванкою. Говард пише незвичайні листи. Але не людям, а якимось поняттям, як Смерть, Час, Любов... Як не дивно, його адресати зустрічаються з ним і намагаються допомогти в його важкій життєвій ситуації.

Тривалість: 01:36:39
Якість:

Відео:
кодек: H.265 (HEVC)
розмір кадру: 1920 x 800
бітрейт: 5 552 кб/с
бітова глибина: 10 біт

Увага! Перед завантаженням переконайтесь, що ваш пристрій відтворення (та/або ПЗ) підтримує H.265 (HEVC)

Аудіо # 1:
мова: українська
переклад: професійний дубльований
кодек: AC-3 5.1
бітрейт: 384 кб/с

Аудіо # 2:
мова: англійська
переклад: оригінал
кодек: 5.1
бітрейт: 1510 кб/с

Субтитри # 1: (Forced)
мова: українська
тип: програмні (м'які)
формат: *.srt

Субтитри # 2-4: (Full, SDH, SDH-Colored)
мова: англійська
тип: програмні (м'які)
формат: *.srt


Info
Код:
General
Unique ID                                : 67954617315313307795562202551937638080 (0x331F954EDE6F7163840FC3F4667B9EC0)
Complete name                            : Collateral Beauty (2016) 1080p H.265 [UKR_ENG] [Hurtom].
Format                                   :
Format version                           : Version 4
File size                                : 5.03 GiB
Duration                                 : 1 h 36 min
Overall bit rate                         : 7 449 kb/s
Movie name                               : Прихована краса / Collateral Beauty (2016)
Encoded date                             : UTC 2019-10-31 20:39:40
Writing application                      : v20.0.0 ('I Am The Sun') 64-bit
Writing library                          : libebml v1.3.5 + v1.4.8
Cover                                    : Yes
Attachments                              : cover.jpg

Video
ID                                       : 1
Format                                   : HEVC
Format/Info                              : High Efficiency Video Coding
Format profile                           : Main [email protected]@High
Codec ID                                 : V_MPEGH/ISO/HEVC
Duration                                 : 1 h 36 min
Bit rate                                 : 5 552 kb/s
Width                                    : 1 920 pixels
Height                                   : 800 pixels
Display aspect ratio                     : 2.40:1
Frame rate mode                          : Constant
Frame rate                               : 23.976 (24000/1001) FPS
Color space                              : YUV
Chroma subsampling                       : 4:2:0
Bit depth                                : 10 bits
Bits/(Pixel*Frame)                       : 0.151
Stream size                              : 3.75 GiB (75%)
Title                                    : Прихована краса / Collateral Beauty (2016)
Writing library                          : x265 2.2+36-9b975fec584a:[Windows][GCC 6.3.0][64 bit] 10bit
Encoding settings                        : cpuid=1173503 / frame-threads=3 / numa-pools=8 / wpp / no-pmode / no-pme / no-psnr / ssim / log-level=2 / input-csp=1 / input-res=1920x800 / interlace=0 / total-frames=0 / level-idc=41 / high-tier=1 / uhd-bd=0 / ref=6 / no-allow-non-conformance / repeat-headers / annexb / aud / hrd / info / hash=0 / no-temporal-layers / open-gop / min-keyint=23 / keyint=250 / bframes=10 / b-adapt=2 / b-pyramid / bframe-bias=0 / rc-lookahead=60 / lookahead-slices=1 / scenecut=40 / no-intra-refresh / ctu=64 / min-cu-size=8 / no-rect / no-amp / max-tu-size=32 / tu-inter-depth=3 / tu-intra-depth=3 / limit-tu=0 / rdoq-level=1 / dynamic-rd=2.00 / signhide / no-tskip / nr-intra=0 / nr-inter=0 / no-constrained-intra / no-strong-intra-smoothing / max-merge=2 / limit-refs=3 / no-limit-modes / me=1 / subme=4 / merange=64 / temporal-mvp / weightp / weightb / no-analyze-src-pics / deblock=-3:-3 / no-sao / no-sao-non-deblock / rd=4 / no-early-skip / no-rskip / no-fast-intra / no-tskip-fast / no-cu-lossless / no-b-intra / rdpenalty=0 / psy-rd=2.60 / psy-rdoq=3.30 / no-rd-refine / analysis-mode=0 / no-lossless / cbqpoffs=0 / crqpoffs=0 / rc=crf / crf=22.0 / qcomp=1.00 / qpstep=6 / stats-write=0 / stats-read=0 / vbv-maxrate=50000 / vbv-bufsize=50000 / vbv-init=0.9 / crf-max=0.0 / crf-min=0.0 / ipratio=1.50 / pbratio=1.00 / aq-mode=1 / aq-strength=0.30 / no-cutree / zone-count=0 / no-strict-cbr / qg-size=32 / no-rc-grain / qpmax=69 / qpmin=0 / sar=1 / overscan=0 / videoformat=5 / range=0 / colorprim=2 / transfer=2 / colormatrix=1 / chromaloc=0 / display-window=0 / max-cll=0,0 / min-luma=0 / max-luma=1023 / log2-max-poc-lsb=8 / vui-timing-info / vui-hrd-info / slices=1 / opt-qp-pps / opt-ref-list-length-pps / no-multi-pass-opt-rps / scenecut-bias=0.05 / no-opt-cu-delta-qp / aq-motion / no-hdr
Default                                  : Yes
Forced                                   : Yes
Color range                              : Limited
Matrix coefficients                      : BT.709

Audio #1
ID                                       : 2
Format                                   : AC-3
Format/Info                              : Audio Coding 3
Commercial name                          : Dolby Digital
Codec ID                                 : A_AC3
Duration                                 : 1 h 36 min
Bit rate mode                            : Constant
Bit rate                                 : 384 kb/s
Channel(s)                               : 6 channels
Channel layout                           : L R C LFE Ls Rs
Sampling rate                            : 48.0 kHz
Frame rate                               : 31.250 FPS (1536 SPF)
Bit depth                                : 16 bits
Compression mode                         : Lossy
Stream size                              : 265 MiB (5%)
Title                                    : / 5.1 Ch / 384 kbps / ПД / iTunes
Language                                 : Ukrainian
Service kind                             : Complete Main
Default                                  : Yes
Forced                                   : Yes

Audio #2
ID                                       : 3
Format                                   :
Format/Info                              : Digital Theater Systems
Codec ID                                 : A_DTS
Duration                                 : 1 h 36 min
Bit rate mode                            : Constant
Bit rate                                 : 1 509 kb/s
Channel(s)                               : 6 channels
Channel layout                           : C L R Ls Rs LFE
Sampling rate                            : 48.0 kHz
Frame rate                               : 93.750 FPS (512 SPF)
Bit depth                                : 24 bits
Compression mode                         : Lossy
Stream size                              : 1.02 GiB (20%)
Title                                    : / 5.1 Ch / 1509 kbps / Original
Language                                 : English
Default                                  : No
Forced                                   : No

Text #1
ID                                       : 4
Format                                   : UTF-8
Codec ID                                 : S_TEXT/UTF8
Codec ID/Info                            : UTF-8 Plain Text
Duration                                 : 1 h 22 min
Bit rate                                 : 1 b/s
Count of elements                        : 16
Stream size                              : 884 Bytes (0%)
Title                                    : Forced
Language                                 : Ukrainian
Default                                  : Yes
Forced                                   : Yes

Text #2
ID                                       : 5
Format                                   : UTF-8
Codec ID                                 : S_TEXT/UTF8
Codec ID/Info                            : UTF-8 Plain Text
Duration                                 : 1 h 30 min
Bit rate                                 : 65 b/s
Count of elements                        : 1449
Stream size                              : 43.9 KiB (0%)
Title                                    : Full
Language                                 : English
Default                                  : No
Forced                                   : No

Text #3
ID                                       : 6
Format                                   : UTF-8
Codec ID                                 : S_TEXT/UTF8
Codec ID/Info                            : UTF-8 Plain Text
Duration                                 : 1 h 30 min
Bit rate                                 : 69 b/s
Count of elements                        : 1515
Stream size                              : 46.2 KiB (0%)
Title                                    : SDH
Language                                 : English
Default                                  : No
Forced                                   : No

Text #4
ID                                       : 7
Format                                   : UTF-8
Codec ID                                 : S_TEXT/UTF8
Codec ID/Info                            : UTF-8 Plain Text
Duration                                 : 1 h 30 min
Bit rate                                 : 74 b/s
Count of elements                        : 1518
Stream size                              : 49.7 KiB (0%)
Title                                    : SDH-Colored
Language                                 : English
Default                                  : No
Forced                                   : No

Menu
00:00:00.000                             : en:00:00:00.000
00:10:20.078                             : en:00:10:20.078
00:21:30.414                             : en:00:21:30.414
00:33:57.118                             : en:00:33:57.118
00:42:43.311                             : en:00:42:43.311
00:53:07.184                             : en:00:53:07.184
01:01:04.327                             : en:01:01:04.327
01:08:55.048                             : en:01:08:55.048
01:22:15.931                             : en:01:22:15.931
01:33:09.626                             : en:01:33:09.626
Світлини




Джерело: &
Особиста оцінка: 0 - не дивився


 Трекер:    Зареєстрований   

Завантажити / скачати фільм українською



відео для новачків



 Зареєстрований:   2019-10-31 23:30
 Розмір:   5.03 GB 
 Оцінка фільму:   8.9/10 (Голосів: 9)
   
Інші релізи
Anonymous 







2019-10-31 23:30  
Якісніша укр. доріжка.
waldi-hurtom 
VIP


З нами з: 07.10.12
Востаннє: 17.11.19
Повідомлень: 1042

2019-11-02 17:21  
Оце занудство, бляха! Іноді краще жувати, ніж знімати фільми. Зірки не врятували, бо немає чого рятувати. Не зміг додивитися - в аут!
Ваш часовий пояс: GMT + 2 Години

Нова тема   Відповісти