Божевільна / Unsane (2018) 1080p H.265 Ukr/Eng | Sub Ukr/Eng

Нові коментарі

Нова тема   Відповісти
Останній раз роздавалося Nazaroid (2019-04-24)
Автор Повідомлення
-Star-Lord- 
VIP


З нами з: 09.08.18
Востаннє: 24.04.19
Повідомлень: 737

2019-02-04 14:33  
Божевільна / Unsane (2018) 1080p H.265 Ukr/Eng | Sub Ukr/Eng

Божевільна / Unsane (2018) 1080p H.265 Ukr/Eng | Sub Ukr/Eng


Жанр: жахи, трилер
Країна: США
Кінокомпанія: Extension 765, New Regency Pictures, Regency Enterprises
Режисер: Стівен Содерберг
Актори: Клер Фой, Джошуа Леонард, Джей Феро, Джуно Темпл, Емі Ірвінг, Аймі Маллінз, Сара Стайлс, Зак Черрі, Марк Кадиш

Сюжет:
Молоду жінку без її згоди закривають в психіатричній лікарні, де вона стикається зі своїм найбільшим страхом. Але чи є те, що відбувається, реальністю, чи це все її галюцинація?

Тривалість: 01:37:48
Якість:
Відео:
кодек: H.265 (HEVC)
розмір кадру: 1688 x 1080
бітрейт: 6 797 кб/с
частота кадрів: 23.976 fps
біт піксель: 0.156 BPP
бітова глибина: 10 біт
Увага! Перед завантаженням переконайтесь, що ваш пристрій відтворення (та/або ПЗ) підтримує H.265 (HEVC)

Аудіо # 1:
мова: українська
переклад: професійний дубльований
кодек: AC-3 5.1
бітрейт: 448 кб/с

Аудіо # 2:
мова: англійська
переклад: оригінал
кодек: AC-3 5.1
бітрейт: 448 кб/с

Субтитри # 1:
мова: українська (Forced),
тип: програмні (м'які)
формат: *.srt

Субтитри # 2:
мова: українська (Full),
тип: програмні (м'які)
формат: *.srt

Субтитри # 3:
мова: англійська (Full),
тип: програмні (м'які)
формат: *.srt

Субтитри # 4:
мова: англійська (SDH),
тип: програмні (м'які)
формат: *.srt


Info
Код:
General
Unique ID                                : 47019100399178530411268952502668787163 (0x235F8CA1A83CCE0AB9B5DA4B7DD27DDB)
Complete name                            : F:\Video\Films\Unsane (2018) 1080p H.265 [UKR_ENG].
Format                                   :
Format version                           : Version 4 / Version 2
File size                                : 5.26 GiB
Duration                                 : 1 h 37 min
Overall bit rate                         : 7 696 kb/s
Movie name                               : Unsane (2018)
Encoded date                             : UTC 2019-02-01 09:03:47
Writing application                      : v20.0.0 ('I Am The Sun') 64-bit
Writing library                          : libebml v1.3.5 + v1.4.8
Cover                                    : Yes
Attachments                              : cover

Video
ID                                       : 1
Format                                   : HEVC
Format/Info                              : High Efficiency Video Coding
Format profile                           : Main [email protected]@High
Codec ID                                 : V_MPEGH/ISO/HEVC
Duration                                 : 1 h 37 min
Bit rate                                 : 6 797 kb/s
Width                                    : 1 688 pixels
Height                                   : 1 080 pixels
Display aspect ratio                     : 16:10
Frame rate mode                          : Constant
Frame rate                               : 23.976 (24000/1001) FPS
Color space                              : YUV
Chroma subsampling                       : 4:2:0
Bit depth                                : 10 bits
Bits/(Pixel*Frame)                       : 0.156
Stream size                              : 4.64 GiB (88%)
Title                                    : Unsane (2018)
Writing library                          : x265 2.9+9-f74003e88622:[Windows][GCC 8.2.0][64 bit] 10bit
Encoding settings                        : cpuid=1049583 / frame-threads=5 / numa-pools=4 / wpp / no-pmode / no-pme / no-psnr / no-ssim / log-level=3 / input-csp=1 / input-res=1688x1080 / interlace=0 / total-frames=0 / level-idc=51 / high-tier=1 / uhd-bd=0 / ref=5 / allow-non-conformance / no-repeat-headers / annexb / no-aud / no-hrd / info / hash=0 / no-temporal-layers / open-gop / min-keyint=24 / keyint=240 / gop-lookahead=0 / bframes=8 / b-adapt=2 / b-pyramid / bframe-bias=0 / rc-lookahead=40 / lookahead-slices=6 / scenecut=40 / radl=0 / no-intra-refresh / ctu=64 / min-cu-size=8 / no-rect / no-amp / max-tu-size=32 / tu-inter-depth=1 / tu-intra-depth=1 / limit-tu=0 / rdoq-level=0 / dynamic-rd=0.00 / no-ssim-rd / signhide / no-tskip / nr-intra=0 / nr-inter=0 / no-constrained-intra / no-strong-intra-smoothing / max-merge=2 / limit-refs=3 / no-limit-modes / me=3 / subme=7 / merange=57 / temporal-mvp / weightp / no-weightb / no-analyze-src-pics / deblock=-3:-3 / no-sao / no-sao-non-deblock / rd=3 / no-early-skip / rskip / no-fast-intra / no-tskip-fast / no-cu-lossless / no-b-intra / no-splitrd-skip / rdpenalty=0 / psy-rd=2.00 / psy-rdoq=0.00 / no-rd-refine / no-lossless / cbqpoffs=0 / crqpoffs=0 / rc=crf / crf=18.0 / qcomp=0.60 / qpstep=4 / stats-write=0 / stats-read=0 / vbv-maxrate=50000 / vbv-bufsize=50000 / vbv-init=0.9 / crf-max=0.0 / crf-min=0.0 / ipratio=1.40 / pbratio=1.30 / aq-mode=1 / aq-strength=1.00 / cutree / zone-count=0 / no-strict-cbr / qg-size=32 / no-rc-grain / qpmax=69 / qpmin=0 / no-const-vbv / sar=1 / overscan=0 / videoformat=5 / range=0 / colorprim=1 / transfer=1 / colormatrix=1 / chromaloc=0 / display-window=0 / max-cll=0,0 / min-luma=0 / max-luma=1023 / log2-max-poc-lsb=8 / vui-timing-info / vui-hrd-info / slices=1 / no-opt-qp-pps / no-opt-ref-list-length-pps / no-multi-pass-opt-rps / scenecut-bias=0.05 / no-opt-cu-delta-qp / no-aq-motion / no-hdr / no-hdr-opt / no-dhdr10-opt / no-idr-recovery-sei / analysis-reuse-level=5 / scale-factor=0 / refine-intra=0 / refine-inter=0 / refine-mv=0 / no-limit-sao / ctu-info=0 / no-lowpass-dct / refine-mv-type=0 / copy-pic=1 / max-ausize-factor=1.0 / no-dynamic-refine / no-single-sei
Language                                 : English
Default                                  : Yes
Forced                                   : No
Color range                              : Limited
Color primaries                          : BT.709
Transfer characteristics                 : BT.709
Matrix coefficients                      : BT.709

Audio #1
ID                                       : 2
Format                                   : AC-3
Format/Info                              : Audio Coding 3
Codec ID                                 : A_AC3
Duration                                 : 1 h 37 min
Bit rate mode                            : Constant
Bit rate                                 : 448 kb/s
Channel(s)                               : 6 channels
Channel positions                        : Front: L C R, Side: L R, LFE
Sampling rate                            : 48.0 kHz
Frame rate                               : 31.250 FPS (1536 SPF)
Bit depth                                : 16 bits
Compression mode                         : Lossy
Stream size                              : 313 MiB (6%)
Title                                    : ПД - Blu-Ray
Language                                 : Ukrainian
Service kind                             : Complete Main
Default                                  : Yes
Forced                                   : Yes

Audio #2
ID                                       : 3
Format                                   : AC-3
Format/Info                              : Audio Coding 3
Codec ID                                 : A_AC3
Duration                                 : 1 h 37 min
Bit rate mode                            : Constant
Bit rate                                 : 448 kb/s
Channel(s)                               : 6 channels
Channel positions                        : Front: L C R, Side: L R, LFE
Sampling rate                            : 48.0 kHz
Frame rate                               : 31.250 FPS (1536 SPF)
Bit depth                                : 16 bits
Compression mode                         : Lossy
Stream size                              : 313 MiB (6%)
Title                                    : Original
Language                                 : English
Service kind                             : Complete Main
Default                                  : No
Forced                                   : No

Text #1
ID                                       : 4
Format                                   : UTF-8
Codec ID                                 : S_TEXT/UTF8
Codec ID/Info                            : UTF-8 Plain Text
Duration                                 : 1 h 33 min
Bit rate                                 : 0 b/s
Count of elements                        : 4
Stream size                              : 188 Bytes (0%)
Title                                    : Forced
Language                                 : Ukrainian
Default                                  : Yes
Forced                                   : Yes

Text #2
ID                                       : 5
Format                                   : UTF-8
Codec ID                                 : S_TEXT/UTF8
Codec ID/Info                            : UTF-8 Plain Text
Duration                                 : 1 h 36 min
Bit rate                                 : 89 b/s
Count of elements                        : 1221
Stream size                              : 63.5 KiB (0%)
Title                                    : Full
Language                                 : Ukrainian
Default                                  : No
Forced                                   : No

Text #3
ID                                       : 6
Format                                   : UTF-8
Codec ID                                 : S_TEXT/UTF8
Codec ID/Info                            : UTF-8 Plain Text
Duration                                 : 1 h 35 min
Bit rate                                 : 62 b/s
Count of elements                        : 1291
Stream size                              : 43.8 KiB (0%)
Title                                    : Full
Language                                 : English
Default                                  : No
Forced                                   : No

Text #4
ID                                       : 7
Format                                   : UTF-8
Codec ID                                 : S_TEXT/UTF8
Codec ID/Info                            : UTF-8 Plain Text
Duration                                 : 1 h 36 min
Bit rate                                 : 65 b/s
Count of elements                        : 1381
Stream size                              : 46.2 KiB (0%)
Title                                    : SDH
Language                                 : English
Default                                  : No
Forced                                   : No

Menu
00:00:00.000                             : :Chapter 01
00:05:17.191                             : :Chapter 03
00:09:58.848                             : :Chapter 05
00:14:01.632                             : :Chapter 07
00:19:03.267                             : :Chapter 09
00:24:23.170                             : :Chapter 11
00:28:47.100                             : :Chapter 13
00:36:12.336                             : :Chapter 15
00:40:02.024                             : :Chapter 17
00:45:00.531                             : :Chapter 19
00:49:51.738                             : :Chapter 21
00:55:49.220                             : :Chapter 23
00:58:43.770                             : :Chapter 25
01:04:21.399                             : :Chapter 27
01:07:06.981                             : :Chapter 29
01:15:14.384                             : :Chapter 31
01:23:02.268                             : :Chapter 33
01:26:16.588                             : :Chapter 35
01:30:00.103                             : :Chapter 37
01:34:45.388                             : :Chapter 39
01:37:48.654                             : :Chapter 40
Світлини





Джерело: &
Особиста оцінка: 6 - третій сорт - не брак


 Трекер:    Зареєстрований   

Завантажити / скачати фільм українською



відео для новачків



 Зареєстрований:   2019-02-04 14:33
 Розмір:   5.26 GB 
 Оцінка фільму:   8.9/10 (Голосів: 7)
   
Інші релізи
   Божевільна / Unsane (2018) leicheman  5 / 0   1.45 GB   2018-08-02 21:57 
   Божевільна / Unsane (2018) Remux 1080p Ukr/Eng | Sub Ukr/Eng staf777  2 / 0   24.16 GB   2018-07-31 19:10 
   Божевільна / Unsane (2018) AVC Ukr/Eng | Sub Ukr/Eng 11FrYkT  8 / 0   2.05 GB   2018-07-30 22:33 
   Божевільна / Unsane (2018) 720p Ukr/Eng | Sub Ukr/Eng 11FrYkT  2 / 0   3.91 GB   2018-07-30 17:04 
   Божевільна / Unsane (2018) mini 1080p H.265 Ukr/Eng | Sub Ukr/Eng ukr_anonymous  3 / 0   3.5 GB   2018-07-24 15:23 
   Божевільна / Unsane (2018) 1080p Ukr/Eng | Sub Ukr/Eng staf777  6 / 0   11.48 GB   2018-07-22 17:40 
Ваш часовий пояс: GMT + 2 Години

Нова тема   Відповісти