Богемна рапсодія / Bohemian Rhapsody (2018) 1080p H.265 Ukr/Eng | Sub Ukr/Eng

Нові коментарі

Нова тема   Відповісти
Автор Повідомлення
-Star-Lord- 
VIP


З нами з: 09.08.18
Востаннє: 24.04.19
Повідомлень: 737

2019-02-04 14:29  
Богемна рапсодія / Bohemian Rhapsody (2018) 1080p H.265 Ukr/Eng | Sub Ukr/Eng

Богемна рапсодія / Bohemian Rhapsody (2018) 1080p H.265 Ukr/Eng | Sub Ukr/Eng


Жанр: біографічний, драма, музичний
Країна: Велика Британія, США
Кінокомпанія: GK Films, New Regency Pictures, Queen Films Ltd., Regency Enterprises, Tribeca Productions
Режисер: Брайан Сінгер / Bryan Singer
Актори: Рамі Малек / Rami Malek, Люсі Бойнтон / Lucy Boynton, Гвілім Лі / Gwilym Lee, Бен Харді / Ben Hardy, Джозеф Маццелло / Joseph Mazzello, Ейдан Джиллен / Aidan Gillen, Аллен Ліч / Allen Leech, Том Холландер / Tom Hollander, Майк Майєрс / Mike Myers, Аарон МакКаскер / Aaron McCusker та інші

Сюжет:
«Богемна рапсодія» — це фільм-посвята ансамблю Queen, їхній музиці та видатному солісту Фредді Мерк'юрі, який кинув виклик стереотипам та відкинув умовності, аби стати одним з найулюбленіших артистів на планеті. Фільм простежує карколомний злет Queen завдяки культовим пісням та революційному звучанню, майже розпад групи, коли спосіб життя Мерк'юрі вийшов з-під контролю, та їхнє тріумфальне возз'єднання напередодні благодійного концерту Live Aid, де група на чолі зі смертельно хворим Мерк'юрі продемонструвала один з найвеличніших виступів в історії рок-музики.

Тривалість: 02:14:37
Якість:
Відео:
кодек: H.265 (HEVC)
розмір кадру: 1920 x 800
бітрейт: 7219 кб/с
бітова глибина: 10 біт
Увага! Перед завантаженням переконайтесь, що ваш пристрій відтворення (та/або ПЗ) підтримує H.265 (HEVC)

Аудіо # 1:
мова: українська
переклад: професійний дубльований | студія Postmodern |
кодек: 5.1
бітрейт: 448 кб/с

Аудіо # 2:
мова: англійська
переклад: оригінал
кодек: E- 5.1
бітрейт: 1 509 кб/с

Субтитри # 1:
мова: українська (Forced),
тип: програмні (м'які)
формат: *.srt

Субтитри # 2:
мова: українська (Full),
тип: програмні (м'які)
формат: *.srt

Субтитри # 3:
мова: англійська (Full),
тип: програмні (м'які)
формат: *.srt

Субтитри # 4:
мова: англійська (SDH),
тип: програмні (м'які)
формат: *.srt

Субтитри # 5:
мова: англійська (SDH-Colored),
тип: програмні (м'які)
формат: *.srt


Info
Код:
General
Unique ID                   : 287723513840645229525446438770582516516 (0xD87588794EA6751189CC7F48E0BC7324)
Complete name               : G:\Video\Films\Bohemian Rhapsody (2018) 1080p H.265 [UKR_ENG].
Format                      :
Format version              : Version 4
File size                   : 8.63 GiB
Duration                    : 2 h 14 min
Overall bit rate            : 9 180 kb/s
Movie name                  : Bohemian Rhapsody (2018)
Encoded date                : UTC 2019-02-08 09:11:40
Writing application         : v20.0.0 ('I Am The Sun') 64-bit
Writing library             : libebml v1.3.5 + v1.4.8
Cover                       : Yes
Attachments                 : cover

Video
ID                          : 1
Format                      : HEVC
Format/Info                 : High Efficiency Video Coding
Format profile              : Main [email protected]@High
Codec ID                    : V_MPEGH/ISO/HEVC
Duration                    : 2 h 14 min
Bit rate                    : 7 219 kb/s
Width                       : 1 920 pixels
Height                      : 800 pixels
Display aspect ratio        : 2.40:1
Frame rate mode             : Constant
Frame rate                  : 23.976 (24000/1001) FPS
Color space                 : YUV
Chroma subsampling          : 4:2:0
Bit depth                   : 10 bits
Bits/(Pixel*Frame)          : 0.196
Stream size                 : 6.79 GiB (79%)
Title                       : Bohemian Rhapsody (2018)
Writing library             : x265 3.0+1-ed72af837053:[Windows][GCC 8.2.0][64 bit] 10bit
Encoding settings           : cpuid=1111039 / frame-threads=4 / numa-pools=14,14 / wpp / pmode / no-pme / no-psnr / no-ssim / log-level=2 / input-csp=1 / input-res=1920x800 / interlace=0 / total-frames=193656 / level-idc=41 / high-tier=1 / uhd-bd=0 / ref=3 / no-allow-non-conformance / no-repeat-headers / annexb / no-aud / no-hrd / info / hash=0 / no-temporal-layers / open-gop / min-keyint=23 / keyint=240 / gop-lookahead=0 / bframes=4 / b-adapt=2 / b-pyramid / bframe-bias=0 / rc-lookahead=20 / lookahead-slices=5 / scenecut=40 / radl=0 / no-splice / no-intra-refresh / ctu=32 / min-cu-size=8 / no-rect / no-amp / max-tu-size=32 / tu-inter-depth=1 / tu-intra-depth=1 / limit-tu=0 / rdoq-level=0 / dynamic-rd=0.00 / no-ssim-rd / signhide / no-tskip / nr-intra=0 / nr-inter=0 / no-constrained-intra / no-strong-intra-smoothing / max-merge=2 / limit-refs=0 / no-limit-modes / me=2 / subme=5 / merange=32 / temporal-mvp / weightp / no-weightb / no-analyze-src-pics / deblock=-3:-3 / no-sao / no-sao-non-deblock / rd=3 / no-early-skip / rskip / no-fast-intra / no-tskip-fast / no-cu-lossless / no-b-intra / no-splitrd-skip / rdpenalty=0 / psy-rd=2.00 / psy-rdoq=0.00 / no-rd-refine / no-lossless / cbqpoffs=0 / crqpoffs=0 / rc=crf / crf=16.0 / qcomp=0.60 / qpstep=4 / stats-write=0 / stats-read=0 / vbv-maxrate=50000 / vbv-bufsize=50000 / vbv-init=0.9 / crf-max=0.0 / crf-min=0.0 / ipratio=1.40 / pbratio=1.30 / aq-mode=3 / aq-strength=0.95 / cutree / zone-count=0 / no-strict-cbr / qg-size=32 / no-rc-grain / qpmax=69 / qpmin=0 / no-const-vbv / sar=0 / overscan=0 / videoformat=5 / range=0 / colorprim=1 / transfer=1 / colormatrix=1 / chromaloc=0 / display-window=0 / max-cll=0,0 / min-luma=0 / max-luma=1023 / log2-max-poc-lsb=8 / vui-timing-info / vui-hrd-info / slices=1 / no-opt-qp-pps / no-opt-ref-list-length-pps / no-multi-pass-opt-rps / scenecut-bias=0.05 / no-opt-cu-delta-qp / no-aq-motion / no-hdr / no-hdr-opt / no-dhdr10-opt / no-idr-recovery-sei / analysis-reuse-level=5 / scale-factor=0 / refine-intra=0 / refine-inter=0 / refine-mv=0 / refine-ctu-distortion=0 / no-limit-sao / ctu-info=0 / no-lowpass-dct / refine-analysis-type=0 / copy-pic=1 / max-ausize-factor=1.0 / no-dynamic-refine / no-single-sei / no-hevc-aq / qp-adaptation-range=1.00
Language                    : English
Default                     : Yes
Forced                      : No
Color range                 : Limited
Color primaries             : BT.709
Transfer characteristics    : BT.709
Matrix coefficients         : BT.709

Audio #1
ID                          : 2
Format                      : AC-3
Format/Info                 : Audio Coding 3
Commercial name             : Dolby Digital
Codec ID                    : A_AC3
Duration                    : 2 h 14 min
Bit rate mode               : Constant
Bit rate                    : 448 kb/s
Channel(s)                  : 6 channels
Channel layout              : L R C LFE Ls Rs
Sampling rate               : 48.0 kHz
Frame rate                  : 31.250 FPS (1536 SPF)
Bit depth                   : 16 bits
Compression mode            : Lossy
Stream size                 : 431 MiB (5%)
Title                       : ПД - Blu-Ray
Language                    : Ukrainian
Service kind                : Complete Main
Default                     : Yes
Forced                      : Yes

Audio #2
ID                          : 3
Format                      : ES
Format/Info                 : Digital Theater Systems
Commercial name             : -ES Matrix
Codec ID                    : A_DTS
Duration                    : 2 h 14 min
Bit rate mode               : Constant
Bit rate                    : 1 509 kb/s
Channel(s)                  : 6 channels
Channel(s)_Original         : 7 channels
Channel layout              : C L R Ls Rs Cb LFE
Sampling rate               : 48.0 kHz
Frame rate                  : 93.750 FPS (512 SPF)
Bit depth                   : 24 bits
Compression mode            : Lossy
Stream size                 : 1.42 GiB (16%)
Title                       : Original
Language                    : English
Default                     : No
Forced                      : No

Text #1
ID                          : 4
Format                      : UTF-8
Codec ID                    : S_TEXT/UTF8
Codec ID/Info               : UTF-8 Plain Text
Duration                    : 2 h 13 min
Bit rate                    : 3 b/s
Count of elements           : 71
Stream size                 : 3.87 KiB (0%)
Title                       : Forced
Language                    : Ukrainian
Default                     : Yes
Forced                      : Yes

Text #2
ID                          : 5
Format                      : UTF-8
Codec ID                    : S_TEXT/UTF8
Codec ID/Info               : UTF-8 Plain Text
Duration                    : 2 h 13 min
Bit rate                    : 77 b/s
Count of elements           : 1753
Stream size                 : 75.4 KiB (0%)
Title                       : Full
Language                    : Ukrainian
Default                     : No
Forced                      : No

Text #3
ID                          : 6
Format                      : UTF-8
Codec ID                    : S_TEXT/UTF8
Codec ID/Info               : UTF-8 Plain Text
Duration                    : 2 h 8 min
Bit rate                    : 62 b/s
Count of elements           : 2059
Stream size                 : 58.4 KiB (0%)
Title                       : Full
Language                    : English
Default                     : No
Forced                      : No

Text #4
ID                          : 7
Format                      : UTF-8
Codec ID                    : S_TEXT/UTF8
Codec ID/Info               : UTF-8 Plain Text
Duration                    : 2 h 11 min
Bit rate                    : 68 b/s
Count of elements           : 2268
Stream size                 : 65.6 KiB (0%)
Title                       : SDH
Language                    : English
Default                     : No
Forced                      : No

Text #5
ID                          : 8
Format                      : UTF-8
Codec ID                    : S_TEXT/UTF8
Codec ID/Info               : UTF-8 Plain Text
Duration                    : 2 h 11 min
Bit rate                    : 92 b/s
Count of elements           : 2269
Stream size                 : 88.9 KiB (0%)
Title                       : SDH-Colored
Language                    : English
Default                     : No
Forced                      : No

Menu
00:00:00.000                : en:Chapter 01
00:03:48.728                : en:Chapter 02
00:07:45.465                : en:Chapter 03
00:11:16.593                : en:Chapter 04
00:17:41.811                : en:Chapter 05
00:21:03.179                : en:Chapter 06
00:27:24.184                : en:Chapter 07
00:33:34.846                : en:Chapter 08
00:37:22.282                : en:Chapter 09
00:45:24.013                : en:Chapter 10
00:52:19.595                : en:Chapter 11
00:56:57.205                : en:Chapter 12
01:03:11.413                : en:Chapter 13
01:10:44.991                : en:Chapter 14
01:15:25.730                : en:Chapter 15
01:21:45.901                : en:Chapter 16
01:26:59.172                : en:Chapter 17
01:32:18.199                : en:Chapter 18
01:36:43.923                : en:Chapter 19
01:43:25.574                : en:Chapter 20
01:50:23.283                : en:Chapter 21
01:54:22.898                : en:Chapter 22
02:00:41.109                : en:Chapter 23
02:07:53.332                : en:Chapter 24
Світлини





Джерело:
Особиста оцінка: 0 - не дивився


 Трекер:    Зареєстрований   

Завантажити / скачати фільм українською



відео для новачків



 Зареєстрований:   2019-02-08 13:32
 Розмір:   8.63 GB 
 Оцінка фільму:   8.7/10 (Голосів: 18)
 ЗАЛИШАЙТЕСЬ ЯКОМОГА ДОВШЕ НА РОЗДАЧІ! ЗАВАНТАЖИВ САМ - ДАЙ ЗАВАНТАЖИТИ ІНШИМ!
   
vash1 
Поважний учасник


З нами з: 16.03.16
Востаннє: 24.04.19
Повідомлень: 187

2019-02-04 15:36  
дякую! чекав

p/s нормальна пачка hevc-релізів. коли ви встигаєте? Happy

-Star-Lord- 
VIP


З нами з: 09.08.18
Востаннє: 24.04.19
Повідомлень: 737

2019-02-04 15:38  
vash1
Є у мене невеличкий та корисний секрет, який дуже економить час)

igor911 
Відео Гуртом
Відео Гуртом


З нами з: 18.01.08
Востаннє: 25.04.19
Повідомлень: 12341

2019-02-04 20:00  
-Star-Lord-, прохання не перевантажувати опис релізу другорядними тех.параметрами, такими як частота кадрів чи співвдіношення Bits/(Pixel*Frame). Звіту Info для цього цілком вистачить для тих, хто зацікавиться. Додатково можна (бажано) вказувати лише бітність кольору, якщо вона відрізняється від усталених на сьогодні 8 біт та кольоровий простір у випадку, якщо це BT.2020 (HDR)
-Star-Lord- 
VIP


З нами з: 09.08.18
Востаннє: 24.04.19
Повідомлень: 737

2019-02-04 20:09  
igor911
Ок. В майбутньому не додаватиму.

vash1 
Поважний учасник


З нами з: 16.03.16
Востаннє: 24.04.19
Повідомлень: 187

2019-02-06 22:24  
-Star-Lord- написано:
Є у мене невеличкий та корисний секрет, який дуже економить час)


Я навіть знаю який Happy Але це не змінює факту що від вас 02-04 від вас 24 релізи. Навіть в риму вийшло Happy

Не надякуюсь!


-Star-Lord- 
VIP


З нами з: 09.08.18
Востаннє: 24.04.19
Повідомлень: 737

2019-02-06 22:37  
vash1
можливо завтра буде "Дівчина з тату дракона" трилогія

Додано через 10 секунд:

і ще всяке)

-Star-Lord- 
VIP


З нами з: 09.08.18
Востаннє: 24.04.19
Повідомлень: 737

2019-02-08 14:51  
Заміна доріжок:
Укр 2.0 -> 5.1

Анг 5.1 640 кб/с -> 5.1 1 509 кб/с

+ повний пакет сабів


Додано через 1 годину 14 хвилин 27 секунд:

Дякую за золото!

vash1 
Поважний учасник


З нами з: 16.03.16
Востаннє: 24.04.19
Повідомлень: 187

2019-02-10 18:32  
-Star-Lord- написано:

Заміна доріжок:

Укр 2.0 -> 5.1
Анг 5.1 640 кб/с -> 5.1 1 509 кб/с

+ повний пакет сабів


супер! дякую!

Ваш часовий пояс: GMT + 2 Години

Нова тема   Відповісти