Жах Амітівілля: Пробудження / Amityville: The Awakening (2017) 1080p H.265 Ukr/Eng | Sub Eng

Нові коментарі

Нова тема   Відповісти
Останній раз роздавалося -Star-Lord- (2019-02-08)
Автор Повідомлення
Anonymous 







2019-02-04 12:44  
Жах Амітівілля: Пробудження / Amityville: The Awakening (2017) 1080p H.265 Ukr/Eng | Sub Eng

Жах Амітівілля: Пробудження / Amityville: The Awakening (2017) 1080p H.265 Ukr/Eng | Sub Eng


Жанр: трилер, жахи
Країна: США
Кінокомпанія: Miramax Films, Dimension Films, Blumhouse Productions
Режисер: Франк Хальфун / Franck Khalfoun
Актори: Белла Торн / Bella Thorne, Камерон Монаген / Cameron Monaghan, Дженніфер Джейсон Лі / Jennifer Jason Leigh, Дженніфер Моррісон / Jennifer Morrison, МакКенна Ґрейс / Mckenna Grace, Томас Манн / Thomas Mann, Кертвуд Сміт / Kurtwood Smith, Тейлор Спрейтлер / Taylor Spreitler, Хантер Голігоскі / Hunter Goligoski, Ден Мартіно / Dan Martino та інші

Сюжет:
У той самий будинок в місті Амітвіллі переїжджає мати-одиначка Джоан і троє її дітей. Молодша Джульєтта ще зовсім маленька і всьому рада, а ось Белла не в захваті від переїзду і зміни школи. Брат-близнюк Белли Джеймс давно знаходиться в комі. За запевненням лікарів, вийти з цього стану і повернутися до нормального життя він ніколи не зможе. З переїздом до нової оселі стан хлопця змінюється.

Тривалість: 01:26:46
Якість:
Відео:
кодек: H.265 (HEVC)
розмір кадру: 1920 x 804
бітрейт: 5 107 кб/с
частота кадрів: 24 fps
біт піксель: 0.138 BPP
бітова глибина: 10 біт
Увага! Перед завантаженням переконайтесь, що ваш пристрій відтворення (та/або ПЗ) підтримує H.265 (HEVC)

Аудіо # 1:
мова: українська
переклад: професійний дубльований
кодек: AC-3 2.0
бітрейт: 192 кб/с

Аудіо # 2:
мова: англійська
переклад: оригінал
кодек: AC-3 5.1
бітрейт: 448 кб/с

Субтитри # 1:
мова: англійська (Full),
тип: програмні (м'які)
формат: *.srt


Info
Код:
General
Unique ID                                : 329434701250637498375684896791038522512 (0xF7D6D0CA3C95FF86D55D4DCF6563F490)
Complete name                            : F:\Video\Films\Amityville The Awakening (2017) 1080p H.265 [UKR_ENG].
Format                                   :
Format version                           : Version 4 / Version 2
File size                                : 3.49 GiB
Duration                                 : 1 h 26 min
Overall bit rate                         : 5 737 kb/s
Movie name                               : Amityville The Awakening (2017)
Encoded date                             : UTC 2019-01-31 15:22:14
Writing application                      : v20.0.0 ('I Am The Sun') 64-bit
Writing library                          : libebml v1.3.5 + v1.4.8
Cover                                    : Yes
Attachments                              : cover.jpg

Video
ID                                       : 1
Format                                   : HEVC
Format/Info                              : High Efficiency Video Coding
Format profile                           : Main [email protected]@High
Codec ID                                 : V_MPEGH/ISO/HEVC
Duration                                 : 1 h 26 min
Bit rate                                 : 5 107 kb/s
Width                                    : 1 920 pixels
Height                                   : 804 pixels
Display aspect ratio                     : 2.40:1
Frame rate mode                          : Constant
Frame rate                               : 24.000 FPS
Color space                              : YUV
Chroma subsampling                       : 4:2:0
Bit depth                                : 10 bits
Bits/(Pixel*Frame)                       : 0.138
Stream size                              : 3.10 GiB (89%)
Title                                    : Amityville The Awakening (2017)
Writing library                          : x265 2.9+9-f74003e88622:[Windows][GCC 8.2.0][64 bit] 10bit
Encoding settings                        : cpuid=1049583 / frame-threads=5 / numa-pools=4 / wpp / no-pmode / no-pme / no-psnr / no-ssim / log-level=3 / input-csp=1 / input-res=1920x804 / interlace=0 / total-frames=0 / level-idc=51 / high-tier=1 / uhd-bd=0 / ref=5 / allow-non-conformance / no-repeat-headers / annexb / no-aud / no-hrd / info / hash=0 / no-temporal-layers / open-gop / min-keyint=24 / keyint=240 / gop-lookahead=0 / bframes=8 / b-adapt=2 / b-pyramid / bframe-bias=0 / rc-lookahead=40 / lookahead-slices=5 / scenecut=40 / radl=0 / no-intra-refresh / ctu=64 / min-cu-size=8 / no-rect / no-amp / max-tu-size=32 / tu-inter-depth=1 / tu-intra-depth=1 / limit-tu=0 / rdoq-level=0 / dynamic-rd=0.00 / no-ssim-rd / signhide / no-tskip / nr-intra=0 / nr-inter=0 / no-constrained-intra / no-strong-intra-smoothing / max-merge=2 / limit-refs=3 / no-limit-modes / me=3 / subme=7 / merange=57 / temporal-mvp / weightp / no-weightb / no-analyze-src-pics / deblock=-3:-3 / no-sao / no-sao-non-deblock / rd=3 / no-early-skip / rskip / no-fast-intra / no-tskip-fast / no-cu-lossless / no-b-intra / no-splitrd-skip / rdpenalty=0 / psy-rd=2.00 / psy-rdoq=0.00 / no-rd-refine / no-lossless / cbqpoffs=0 / crqpoffs=0 / rc=crf / crf=17.0 / qcomp=0.75 / qpstep=4 / stats-write=0 / stats-read=0 / vbv-maxrate=50000 / vbv-bufsize=50000 / vbv-init=0.9 / crf-max=0.0 / crf-min=0.0 / ipratio=1.40 / pbratio=1.30 / aq-mode=1 / aq-strength=1.00 / cutree / zone-count=0 / no-strict-cbr / qg-size=32 / no-rc-grain / qpmax=69 / qpmin=0 / no-const-vbv / sar=1 / overscan=0 / videoformat=5 / range=0 / colorprim=1 / transfer=1 / colormatrix=1 / chromaloc=0 / display-window=0 / max-cll=0,0 / min-luma=0 / max-luma=1023 / log2-max-poc-lsb=8 / vui-timing-info / vui-hrd-info / slices=1 / no-opt-qp-pps / no-opt-ref-list-length-pps / no-multi-pass-opt-rps / scenecut-bias=0.05 / no-opt-cu-delta-qp / no-aq-motion / no-hdr / no-hdr-opt / no-dhdr10-opt / no-idr-recovery-sei / analysis-reuse-level=5 / scale-factor=0 / refine-intra=0 / refine-inter=0 / refine-mv=0 / no-limit-sao / ctu-info=0 / no-lowpass-dct / refine-mv-type=0 / copy-pic=1 / max-ausize-factor=1.0 / no-dynamic-refine / no-single-sei
Default                                  : Yes
Forced                                   : No
Color range                              : Limited
Color primaries                          : BT.709
Transfer characteristics                 : BT.709
Matrix coefficients                      : BT.709

Audio #1
ID                                       : 2
Format                                   : AC-3
Format/Info                              : Audio Coding 3
Codec ID                                 : A_AC3
Duration                                 : 1 h 26 min
Bit rate mode                            : Constant
Bit rate                                 : 192 kb/s
Channel(s)                               : 2 channels
Channel positions                        : Front: L R
Sampling rate                            : 48.0 kHz
Frame rate                               : 31.250 FPS (1536 SPF)
Bit depth                                : 16 bits
Compression mode                         : Lossy
Stream size                              : 119 MiB (3%)
Title                                    : ПД - Megogo
Language                                 : Ukrainian
Service kind                             : Complete Main
Default                                  : Yes
Forced                                   : No

Audio #2
ID                                       : 3
Format                                   : AC-3
Format/Info                              : Audio Coding 3
Codec ID                                 : A_AC3
Duration                                 : 1 h 26 min
Bit rate mode                            : Constant
Bit rate                                 : 448 kb/s
Channel(s)                               : 6 channels
Channel positions                        : Front: L C R, Side: L R, LFE
Sampling rate                            : 48.0 kHz
Frame rate                               : 31.250 FPS (1536 SPF)
Bit depth                                : 16 bits
Compression mode                         : Lossy
Stream size                              : 279 MiB (8%)
Title                                    : Original
Language                                 : English
Service kind                             : Complete Main
Default                                  : No
Forced                                   : No

Text
ID                                       : 4
Format                                   : UTF-8
Codec ID                                 : S_TEXT/UTF8
Codec ID/Info                            : UTF-8 Plain Text
Duration                                 : 1 h 21 min
Bit rate                                 : 39 b/s
Count of elements                        : 866
Stream size                              : 23.4 KiB (0%)
Title                                    : Full
Language                                 : English
Default                                  : Yes
Forced                                   : No

Menu
00:00:00.000                             : en:Chapter 01
00:01:37.430                             : en:Chapter 02
00:06:23.633                             : en:Chapter 03
00:11:18.803                             : en:Chapter 04
00:17:59.870                             : en:Chapter 05
00:23:22.025                             : en:Chapter 06
00:29:34.230                             : en:Chapter 07
00:34:44.999                             : en:Chapter 08
00:39:13.893                             : en:Chapter 09
00:45:24.847                             : en:Chapter 10
00:49:53.740                             : en:Chapter 11
00:55:08.680                             : en:Chapter 12
01:00:30.084                             : en:Chapter 13
01:07:05.771                             : en:Chapter 14
01:14:40.058                             : en:Chapter 15
01:22:31.571                             : en:Chapter 16
Світлини





Джерело: &
Особиста оцінка: 0 - не дивився


 Трекер:    Зареєстрований   

Завантажити / скачати фільм українською



відео для новачків



 Зареєстрований:   2019-02-04 12:44
 Розмір:   3.49 GB 
 Оцінка фільму:   -/10 (Голосів: 0)
   
Keltirulla 
Забанено
Забанено


З нами з: 26.08.15
Востаннє: 05.04.19
Повідомлень: 726

2019-03-19 22:05  
Станьте на роздачу
wwwombat 
Відео Гуртом - підтримка та поширення
Відео Гуртом - підтримка та поширення


З нами з: 09.01.12
Востаннє: 17.11.19
Повідомлень: 16

2019-05-14 16:45  
роздайте плз
Ваш часовий пояс: GMT + 2 Години

Нова тема   Відповісти