Ліззі / Lizzie (2018) Remux 1080р Ukr/Eng | Sub Eng

Нові коментарі

Нова тема   Відповісти
Автор Повідомлення
staf777 
Відео Гуртом - підтримка та поширення
Відео Гуртом - підтримка та поширення


З нами з: 16.11.16
Востаннє: 22.04.19
Повідомлень: 2283

2019-02-04 13:01  
Ліззі / Lizzie (2018) Remux 1080р Ukr/Eng | Sub Eng

Ліззі / Lizzie (2018) Remux 1080р Ukr/Eng | Sub Eng


Жанр: біографічний, кримінальний, драма, трилер
Країна: США



Кінокомпанія: Artina Films, Destro Films, Powder Hound Pictures, The Solution Entertainment Group
Режисер: Крейґ Вілльям Макнейлл
Актори: Крістен Стюарт, Хлоя Севіньї, Кім Дікенс, Фіона Шоу, Деніс О'Харе та інші.

Сюжет:
Важкий, атмосферний, провокаційний трилер заснований на біографії американки Ліззі Борден, яка в ніч на 4 серпня 1892 року вбила свого батька і мачуху.
За сюжетом, молода дівчина на ім'я Бріджит Салліван влаштовується служницею в будинок Ліззі Борден. Несподівано для себе Ліззі знаходить в Бріджит споріднену душу, і незабаром вони стають по-справжньому близькими. Але одного разу Бріджит виявляє батька Ліззі і її мачуху мертвими, а головною підозрюваною стає сама Ліззі…


Тривалість: 01:45:41
Якість: Remux 1080р

Відео:
кодек:
розмір кадру: 1920:1080
бітрейт: 20 Mб/с

Аудіо # 1:
мова: українська
переклад: багатоголосий закадровий | DniproFilm
кодек: 5.1
бітрейт: 384 кб/с

Аудіо # 2:
мова: англійська
переклад: оригінал
кодек: -HD MA 5.1
бітрейт: 3198 кб/с

Субтитри:
мова: англійська
тип: програмні (м'які)
формат: *.srt
Info
General
Unique ID : 242054286302299272249557998565229177997 (0xB619F5B67B1DD921DD00BE0BAEEDAC8D)
Complete name : S:\» HD українською » Фільми в HD\Трилер\Lizzie (2018) Remux 1080p [UKR][ENG][Hurtom].
Format :
Format version : Version 4
File size : 17.4 GiB
Duration : 1 h 45 min
Overall bit rate mode : Variable
Overall bit rate : 23.6 Mb/s
Movie name : Lizzie (2018) Remux 1080p [UKR][ENG][Hurtom]
Encoded date : UTC 2019-02-04 12:30:23
Writing application : v30.1.0 ('Forever And More') 64-bit
Writing library : libebml v1.3.6 + v1.4.9
Cover : Yes
Attachments : cover.jpg

Video
ID : 1
Format : AVC
Format/Info : Advanced Video Codec
Format profile : [email protected]
Format settings : CABAC / 4 Ref Frames
Format settings, CABAC : Yes
Format settings, ReFrames : 4 frames
Codec ID : V_MPEG4/ISO/AVC
Duration : 1 h 45 min
Bit rate mode : Variable
Bit rate : 20.0 Mb/s
Maximum bit rate : 35.0 Mb/s
Width : 1 920 pixels
Height : 1 080 pixels
Display aspect ratio : 16:9
Frame rate mode : Constant
Frame rate : 23.976 (24000/1001) FPS
Standard : NTSC
Color space : YUV
Chroma subsampling : 4:2:0
Bit depth : 8 bits
Scan type : Progressive
Bits/(Pixel*Frame) : 0.402
Stream size : 14.7 GiB (85%)
Language : English
Default : Yes
Forced : No
Color range : Limited
Color primaries : BT.709
Transfer characteristics : BT.709
Matrix coefficients : BT.709

Audio #1
ID : 2
Format : AC-3
Format/Info : Audio Coding 3
Commercial name : Dolby Digital
Codec ID : A_AC3
Duration : 1 h 45 min
Bit rate mode : Constant
Bit rate : 384 kb/s
Channel(s) : 6 channels
Channel layout : L R C LFE Ls Rs
Sampling rate : 48.0 kHz
Frame rate : 31.250 FPS (1536 SPF)
Bit depth : 16 bits
Compression mode : Lossy
Stream size : 290 MiB (2%)
Title : DniproFilm
Language : Ukrainian
Service kind : Complete Main
Default : Yes
Forced : Yes

Audio #2
ID : 3
Format : XLL
Format/Info : Digital Theater Systems
Commercial name : -HD Master Audio
Codec ID : A_DTS
Duration : 1 h 45 min
Bit rate mode : Variable
Bit rate : 3 198 kb/s
Channel(s) : 6 channels
Channel layout : C L R Ls Rs LFE
Sampling rate : 48.0 kHz
Frame rate : 93.750 FPS (512 SPF)
Bit depth : 24 bits
Compression mode : Lossless
Stream size : 2.36 GiB (14%)
Language : English
Default : No
Forced : No

Text
ID : 4
Format : UTF-8
Codec ID : S_TEXT/UTF8
Codec ID/Info : UTF-8 Plain Text
Duration : 1 h 34 min
Bit rate : 28 b/s
Count of elements : 642
Stream size : 19.8 KiB (0%)
Language : English
Default : No
Forced : No

Menu
00:00:00.000 : en:Chapter 00
00:00:12.012 : en:Chapter 01
00:06:25.468 : en:Chapter 02
00:12:39.258 : en:Chapter 03
00:19:10.023 : en:Chapter 04
00:27:34.653 : en:Chapter 05
00:36:35.359 : en:Chapter 06
00:41:07.673 : en:Chapter 07
00:46:37.711 : en:Chapter 08
00:53:02.929 : en:Chapter 09
01:00:24.787 : en:Chapter 10
01:06:01.540 : en:Chapter 11
01:12:29.803 : en:Chapter 12
01:19:11.496 : en:Chapter 13
01:27:13.937 : en:Chapter 14
01:33:06.372 : en:Chapter 15
01:39:43.852 : en:Chapter 16



Робота зі звуком leicheman
Джерело: &
Особиста оцінка: 0 - не дивився
ЗАЛИШАЙТЕСЬ ЯКОМОГА ДОВШЕ НА РОЗДАЧІ!

СКАЧАВ САМ - ДАЙ СКАЧАТИ ІНШИМ



Авторський реліз (завантажувати можна без реєстрації)
 Трекер:    Зареєстрований   

Завантажити / скачати фільм українською



відео для новачків



 Зареєстрований:   2019-02-04 15:50
 Розмір:   17.39 GB 
 Оцінка фільму:   8.5/10 (Голосів: 6)
   
Інші релізи
   Ліззі / Lizzie (2018) 1080p Ukr/Eng | Sub Eng staf777  2 / 0   14 GB   2019-02-04 14:29 
   Ліззі / Lizzie (2018) 1080p H.265 Ukr/Eng | Sub Eng -Star-Lord-  3 / 0   5.64 GB   2019-02-04 12:03 
   Ліззі / Lizzie (2018) Ukr/Eng | Sub Eng ssTAss  10 / 0   1.45 GB   2019-01-19 02:37 
Ваш часовий пояс: GMT + 2 Години

Нова тема   Відповісти