Ребекка / Rebecca (1940) 1080p H.265 Ukr/Eng | Sub Eng

Нові коментарі

Нова тема   Відповісти
Останній раз роздавалося fantomace (2019-04-18)
Автор Повідомлення
-Star-Lord- 
VIP


З нами з: 09.08.18
Востаннє: 19.04.19
Повідомлень: 736

2019-02-04 13:00  
Ребекка / Rebecca (1940) 1080p H.265 Ukr/Eng | Sub Eng

Ребекка / Rebecca (1940) 1080p H.265 Ukr/Eng | Sub Eng


Жанр: драма, детектив, трилер
Країна: США
Кінокомпанія: Selznick International Pictures
Режисер: Альфред Гічкок (Alfred Hitchcock)
Актори: Лоуренс Олів'є (Laurence Olivier), Джоан Фонтейн (Joan Fontaine), Джордж Сандерс (George Sanders), Джудіт Андерсон (Judith Anderson), Найджел Брюс (Nigel Bruce), Реджінальд Денні (Reginald Denny), Сі Обрі Сміт (C. Aubrey Smith), Ґладіс Купер (Gladys Cooper), Флоренсе Батес (Florence Bates), Мелвілле Купер (Melville Cooper), Лео Дж. Карролл (Leo G. Carroll), Леонард Карі (Leonard Carey), Лумсден Харе (Lumsden Hare), Едвард Філдінґ (Edward Fielding), Філіп Bінтер (Philip Winter)

Сюжет:
Американський аристократ Де Вінтер несподівано одружується на простій скромній дівчині і привозить її у свій замок. Але в замку все нагадує про Ребеку - померлу першу дружину Де Вінтера. Таємниця смерті Ребеки не дає новій дружині спокою.

Тривалість: 02:10:40
Якість:
Відео:
кодек: H.265 (HEVC)
розмір кадру: 1436 x 1080
бітрейт: 5 001 кб/с
частота кадрів: 23.976 fps
біт піксель: 0.134 BPP
бітова глибина: 10 біт
Увага! Перед завантаженням переконайтесь, що ваш пристрій відтворення (та/або ПЗ) підтримує H.265 (HEVC)

Аудіо # 1:
мова: українська
переклад: двоголосий закадровий
кодек: AC-3 2.0
бітрейт: 192 кб/с

Аудіо # 2:
мова: англійська
переклад: оригінал
кодек: AC-3 2.0
бітрейт: 192 кб/с

Субтитри # 1:
мова: англійська (Full),
тип: програмні (м'які)
формат: *.srt


Info
Код:
General
Unique ID                                : 137595594678459380679794852989346989112 (0x6783F295F5A6254127963B81296B4438)
Complete name                            : F:\Video\Films\Rebecca (1940) [Criterion] 1080p H.265 [UKR_ENG].
Format                                   :
Format version                           : Version 4 / Version 2
File size                                : 4.92 GiB
Duration                                 : 2 h 10 min
Overall bit rate                         : 5 387 kb/s
Movie name                               : Rebecca (1940) Criterion
Encoded date                             : UTC 2019-01-30 14:30:03
Writing application                      : v20.0.0 ('I Am The Sun') 64-bit
Writing library                          : libebml v1.3.5 + v1.4.8
Cover                                    : Yes
Attachments                              : cover.jpg

Video
ID                                       : 1
Format                                   : HEVC
Format/Info                              : High Efficiency Video Coding
Format profile                           : Main [email protected]@Main
Codec ID                                 : V_MPEGH/ISO/HEVC
Duration                                 : 2 h 10 min
Bit rate                                 : 5 001 kb/s
Width                                    : 1 436 pixels
Height                                   : 1 080 pixels
Display aspect ratio                     : 4:3
Frame rate mode                          : Constant
Frame rate                               : 23.976 (24000/1001) FPS
Color space                              : YUV
Chroma subsampling                       : 4:2:0
Bit depth                                : 10 bits
Bits/(Pixel*Frame)                       : 0.134
Stream size                              : 4.56 GiB (93%)
Title                                    : Rebecca (1940) Criterion
Writing library                          : x265 2.9+34-17120cfb5c99:[Windows][GCC 8.2.0][64 bit] 10bit
Encoding settings                        : cpuid=1111039 / frame-threads=3 / numa-pools=8 / wpp / no-pmode / no-pme / no-psnr / no-ssim / log-level=2 / input-csp=1 / input-res=1436x1080 / interlace=0 / total-frames=187992 / level-idc=0 / high-tier=1 / uhd-bd=0 / ref=4 / no-allow-non-conformance / no-repeat-headers / annexb / no-aud / no-hrd / info / hash=0 / no-temporal-layers / open-gop / min-keyint=23 / keyint=250 / gop-lookahead=0 / bframes=8 / b-adapt=2 / b-pyramid / bframe-bias=0 / rc-lookahead=80 / lookahead-slices=4 / scenecut=40 / radl=0 / no-splice / no-intra-refresh / ctu=64 / min-cu-size=8 / no-rect / no-amp / max-tu-size=32 / tu-inter-depth=1 / tu-intra-depth=1 / limit-tu=0 / rdoq-level=2 / dynamic-rd=0.00 / no-ssim-rd / signhide / no-tskip / nr-intra=0 / nr-inter=0 / no-constrained-intra / no-strong-intra-smoothing / max-merge=3 / limit-refs=3 / limit-modes / me=3 / subme=5 / merange=57 / temporal-mvp / weightp / no-weightb / no-analyze-src-pics / deblock=-3:-3 / no-sao / no-sao-non-deblock / rd=4 / no-early-skip / rskip / no-fast-intra / no-tskip-fast / no-cu-lossless / no-b-intra / no-splitrd-skip / rdpenalty=0 / psy-rd=2.00 / psy-rdoq=1.00 / no-rd-refine / no-lossless / cbqpoffs=0 / crqpoffs=0 / rc=abr / bitrate=5000 / qcomp=0.60 / qpstep=4 / stats-write=0 / stats-read=2 / cplxblur=20.0 / qblur=0.5 / ipratio=1.40 / pbratio=1.30 / aq-mode=3 / aq-strength=1.00 / cutree / zone-count=0 / no-strict-cbr / qg-size=32 / no-rc-grain / qpmax=69 / qpmin=0 / no-const-vbv / sar=0 / overscan=0 / videoformat=5 / range=0 / colorprim=2 / transfer=2 / colormatrix=2 / chromaloc=0 / display-window=0 / max-cll=0,0 / min-luma=0 / max-luma=1023 / log2-max-poc-lsb=8 / vui-timing-info / vui-hrd-info / slices=1 / no-opt-qp-pps / no-opt-ref-list-length-pps / no-multi-pass-opt-rps / scenecut-bias=0.05 / no-opt-cu-delta-qp / no-aq-motion / no-hdr / no-hdr-opt / no-dhdr10-opt / no-idr-recovery-sei / analysis-reuse-level=5 / scale-factor=0 / refine-intra=0 / refine-inter=0 / refine-mv=0 / refine-ctu-distortion=0 / no-limit-sao / ctu-info=0 / no-lowpass-dct / refine-analysis-type=0 / copy-pic=1 / max-ausize-factor=1.0 / no-dynamic-refine / no-single-sei / no-hevc-aq / qp-adaptation-range=1.00
Default                                  : Yes
Forced                                   : No

Audio #1
ID                                       : 2
Format                                   : AC-3
Format/Info                              : Audio Coding 3
Codec ID                                 : A_AC3
Duration                                 : 2 h 10 min
Bit rate mode                            : Constant
Bit rate                                 : 192 kb/s
Channel(s)                               : 2 channels
Channel positions                        : Front: L R
Sampling rate                            : 48.0 kHz
Frame rate                               : 31.250 FPS (1536 SPF)
Bit depth                                : 16 bits
Compression mode                         : Lossy
Stream size                              : 179 MiB (4%)
Title                                    : ДЗ - 1+1
Language                                 : Ukrainian
Service kind                             : Complete Main
Default                                  : Yes
Forced                                   : No

Audio #2
ID                                       : 3
Format                                   : AC-3
Format/Info                              : Audio Coding 3
Codec ID                                 : A_AC3
Duration                                 : 2 h 10 min
Bit rate mode                            : Constant
Bit rate                                 : 192 kb/s
Channel(s)                               : 2 channels
Channel positions                        : Front: L R
Sampling rate                            : 48.0 kHz
Frame rate                               : 31.250 FPS (1536 SPF)
Bit depth                                : 16 bits
Compression mode                         : Lossy
Stream size                              : 179 MiB (4%)
Title                                    : Original
Language                                 : English
Service kind                             : Complete Main
Default                                  : No
Forced                                   : No

Text
ID                                       : 4
Format                                   : UTF-8
Codec ID                                 : S_TEXT/UTF8
Codec ID/Info                            : UTF-8 Plain Text
Duration                                 : 2 h 9 min
Bit rate                                 : 85 b/s
Count of elements                        : 1923
Stream size                              : 80.6 KiB (0%)
Title                                    : Full
Language                                 : English
Default                                  : Yes
Forced                                   : No

Menu
00:00:00.000                             : en:Chapter 01
00:03:43.306                             : en:Chapter 02
00:07:55.933                             : en:Chapter 03
00:18:24.228                             : en:Chapter 04
00:28:25.161                             : en:Chapter 05
00:39:12.558                             : en:Chapter 06
00:47:09.409                             : en:Chapter 07
00:55:46.217                             : en:Chapter 08
01:02:22.905                             : en:Chapter 09
01:06:50.339                             : en:Chapter 10
01:16:25.122                             : en:Chapter 11
01:24:39.240                             : en:Chapter 12
01:40:35.696                             : en:Chapter 13
01:49:29.145                             : en:Chapter 14
02:01:03.422                             : en:Chapter 15
02:07:12.541                             : en:Chapter 16
Світлини





Джерело: &
Особиста оцінка: 0 - не дивився


Срібний реліз (на рейтинг впливає 50% завантаженого)
 Трекер:    Зареєстрований   

Завантажити / скачати фільм українською



відео для новачків



 Зареєстрований:   2019-02-04 13:00
 Розмір:   4.92 GB 
 Оцінка фільму:   9/10 (Голосів: 2)
   
Інші релізи
   Ребекка / Rebecca (1940) 720p Ukr/Eng | Sub Eng Mr Yuran  3 / 0   5.32 GB   2014-07-15 14:09 
   Ребекка / Rebecca (1940) Ukr/Eng | Sub Eng karvai0  5 / 0   2.18 GB   2012-12-03 20:40 
vash1 
Поважний учасник


З нами з: 16.03.16
Востаннє: 19.04.19
Повідомлень: 186

2019-02-04 15:37  
супер! більше хічкока!
Ваш часовий пояс: GMT + 2 Години

Нова тема   Відповісти