Телемережа / Network (1976) mini 1080p H.265 Ukr/Eng | Sub Eng

Нові коментарі

Нова тема   Відповісти
Автор Повідомлення
-Star-Lord- 
VIP


З нами з: 09.08.18
Востаннє: 23.04.19
Повідомлень: 737

2019-02-04 12:49  
Телемережа / Network (1976) mini 1080p H.265 Ukr/Eng | Sub Eng

Телемережа / Network (1976) mini 1080p H.265 Ukr/Eng | Sub Eng


Жанр: драма
Країна: США
Кінокомпанія: Metro-Goldwyn-Mayer (MGM)
Режисер: Сідні Люмет
Актори: Фей Данавей, Вільям Голден, Пітер Фінч, Беатріс Стрейт, Педді Чаефскі

Сюжет:
В основі фільму лежить історія вигаданої телекомпанії Union Broadcasting System (UBS) та її ведучого новин Говарда Біла. Біл сходить з розуму, проте UBS в гонитві за рейтингами продовжує випускати його передачу. Під час одного з випусків Біл несамовито кричить «Я злий, як собака, і більше не збираюся цього терпіти!» і закликає всіх глядачів покричати цю фразу. Люди по всій країні з вікон кричать те ж саме. UBS створює «Шоу Говарда Біла», позиціонуючи Біла як «божевільного пророка». Шоу моментально стає найпопулярнішою програмою.

Фільм отримав чотири «Оскари»: за кращу чоловічу роль (Фінч), за кращу жіночу роль (Фей Данавей), за кращу жіночу роль другого плану (Беатріс Стрейт) і за кращий оригінальний сценарій (Педді Чаефскі).


Тривалість: 02:01:23
Якість: mini
Відео:
кодек: H.265 (HEVC)
розмір кадру: 1920 x 1040
бітрейт: 5 150 кб/с
частота кадрів: 23.976 fps
біт піксель: 0.108 BPP
бітова глибина: 10 біт
Увага! Перед завантаженням переконайтесь, що ваш пристрій відтворення (та/або ПЗ) підтримує H.265 (HEVC)

Аудіо # 1:
мова: українська
переклад: багатоголосий закадровий | "Цікава ідея"
кодек: 1.0
бітрейт: 768 кб/с

Аудіо # 2:
мова: англійська
переклад: оригінал
кодек: 1.0
бітрейт: 106 кб/с

Субтитри # 1:
мова: англійська (Full),
тип: програмні (м'які)
формат: *.srt


Info
Код:
General
Unique ID                                : 179851460523974058251098183627575736088 (0x874E219F44A98986BAE45A5849B53718)
Complete name                            : F:\Video\Films\Network (1976) 1080p H.265 [UKR_ENG].
Format                                   :
Format version                           : Version 4 / Version 2
File size                                : 5.45 GiB
Duration                                 : 2 h 1 min
Overall bit rate                         : 6 423 kb/s
Movie name                               : Network (1976)
Encoded date                             : UTC 2019-01-30 10:17:19
Writing application                      : v20.0.0 ('I Am The Sun') 64-bit
Writing library                          : libebml v1.3.5 + v1.4.8
Cover                                    : Yes
Attachments                              : cover.jpg

Video
ID                                       : 1
Format                                   : HEVC
Format/Info                              : High Efficiency Video Coding
Format profile                           : Main [email protected]@Main
Codec ID                                 : V_MPEGH/ISO/HEVC
Duration                                 : 2 h 1 min
Bit rate                                 : 5 150 kb/s
Width                                    : 1 920 pixels
Height                                   : 1 040 pixels
Display aspect ratio                     : 1.85:1
Frame rate mode                          : Constant
Frame rate                               : 23.976 (24000/1001) FPS
Color space                              : YUV
Chroma subsampling                       : 4:2:0
Bit depth                                : 10 bits
Bits/(Pixel*Frame)                       : 0.108
Stream size                              : 4.37 GiB (80%)
Title                                    : Network (1976)
Writing library                          : x265 2.9+34-17120cfb5c99:[Windows][GCC 8.2.0][64 bit] 10bit
Encoding settings                        : cpuid=1049583 / frame-threads=3 / numa-pools=8 / wpp / no-pmode / no-pme / no-psnr / no-ssim / log-level=2 / input-csp=1 / input-res=1920x1040 / interlace=0 / total-frames=174626 / level-idc=0 / high-tier=1 / uhd-bd=0 / ref=4 / no-allow-non-conformance / no-repeat-headers / annexb / no-aud / no-hrd / info / hash=0 / no-temporal-layers / open-gop / min-keyint=23 / keyint=250 / gop-lookahead=0 / bframes=8 / b-adapt=2 / b-pyramid / bframe-bias=0 / rc-lookahead=80 / lookahead-slices=4 / scenecut=40 / radl=0 / no-splice / no-intra-refresh / ctu=64 / min-cu-size=8 / no-rect / no-amp / max-tu-size=32 / tu-inter-depth=1 / tu-intra-depth=1 / limit-tu=0 / rdoq-level=2 / dynamic-rd=0.00 / no-ssim-rd / signhide / no-tskip / nr-intra=0 / nr-inter=0 / no-constrained-intra / no-strong-intra-smoothing / max-merge=3 / limit-refs=3 / limit-modes / me=3 / subme=5 / merange=57 / temporal-mvp / weightp / no-weightb / no-analyze-src-pics / deblock=-3:-3 / no-sao / no-sao-non-deblock / rd=4 / no-early-skip / rskip / no-fast-intra / no-tskip-fast / no-cu-lossless / no-b-intra / no-splitrd-skip / rdpenalty=0 / psy-rd=2.00 / psy-rdoq=1.00 / no-rd-refine / no-lossless / cbqpoffs=0 / crqpoffs=0 / rc=abr / bitrate=5151 / qcomp=0.60 / qpstep=4 / stats-write=0 / stats-read=2 / cplxblur=20.0 / qblur=0.5 / ipratio=1.40 / pbratio=1.30 / aq-mode=3 / aq-strength=1.00 / cutree / zone-count=0 / no-strict-cbr / qg-size=32 / no-rc-grain / qpmax=69 / qpmin=0 / no-const-vbv / sar=0 / overscan=0 / videoformat=5 / range=0 / colorprim=2 / transfer=2 / colormatrix=2 / chromaloc=0 / display-window=0 / max-cll=0,0 / min-luma=0 / max-luma=1023 / log2-max-poc-lsb=8 / vui-timing-info / vui-hrd-info / slices=1 / no-opt-qp-pps / no-opt-ref-list-length-pps / no-multi-pass-opt-rps / scenecut-bias=0.05 / no-opt-cu-delta-qp / no-aq-motion / no-hdr / no-hdr-opt / no-dhdr10-opt / no-idr-recovery-sei / analysis-reuse-level=5 / scale-factor=0 / refine-intra=0 / refine-inter=0 / refine-mv=0 / refine-ctu-distortion=0 / no-limit-sao / ctu-info=0 / no-lowpass-dct / refine-analysis-type=0 / copy-pic=1 / max-ausize-factor=1.0 / no-dynamic-refine / no-single-sei / no-hevc-aq / qp-adaptation-range=1.00
Default                                  : Yes
Forced                                   : No

Audio #1
ID                                       : 2
Format                                   :
Format/Info                              : Digital Theater Systems
Format profile                           : MA / Core
Codec ID                                 : A_DTS
Duration                                 : 2 h 1 min
Bit rate mode                            : Variable / Constant
Bit rate                                 : 1 152 kb/s / 768 kb/s
Channel(s)                               : 1 channel
Channel positions                        : Front: C
Sampling rate                            : 48.0 kHz
Frame rate                               : 93.750 FPS (512 SPF)
Bit depth                                : 24 bits
Compression mode                         : Lossless / Lossy
Delay relative to video                  : 5 ms
Stream size                              : 981 MiB (18%)
Title                                    : БЗ - Цікава ідея
Language                                 : Ukrainian
Default                                  : Yes
Forced                                   : Yes

Audio #2
ID                                       : 3
Format                                   :
Format/Info                              : Advanced Audio Codec
Format profile                           : LC
Codec ID                                 : A_AAC-2
Duration                                 : 2 h 1 min
Bit rate                                 : 106 kb/s
Channel(s)                               : 1 channel
Channel positions                        : Front: C
Sampling rate                            : 48.0 kHz
Frame rate                               : 46.875 FPS (1024 SPF)
Compression mode                         : Lossy
Delay relative to video                  : 20 ms
Stream size                              : 91.7 MiB (2%)
Title                                    : Original
Language                                 : English
Default                                  : No
Forced                                   : No

Text
ID                                       : 4
Format                                   : PGS
Muxing mode                              : zlib
Codec ID                                 : S_HDMV/PGS
Codec ID/Info                            : Picture based subtitle format used on BDs/HD-DVDs
Duration                                 : 1 h 59 min
Bit rate                                 : 60.6 kb/s
Count of elements                        : 3116
Stream size                              : 51.7 MiB (1%)
Title                                    : Full
Language                                 : English
Default                                  : No
Forced                                   : No

Menu
00:00:00.000                             : en:Chapter 01
00:09:42.248                             : en:Chapter 02
00:19:57.988                             : en:Chapter 03
00:30:07.597                             : en:Chapter 04
00:39:25.654                             : en:Chapter 05
00:52:24.641                             : en:Chapter 06
01:01:04.410                             : en:Chapter 07
01:11:55.853                             : en:Chapter 08
01:21:32.596                             : en:Chapter 09
01:31:32.695                             : en:Chapter 10
01:46:35.347                             : en:Chapter 11
01:52:29.033                             : en:Chapter 12
Світлини





Джерело: &
Особиста оцінка: 0 - не дивився


Авторський реліз (завантажувати можна без реєстрації)
 Трекер:    Зареєстрований   

Завантажити / скачати фільм українською



відео для новачків



 Зареєстрований:   2019-02-04 12:49
 Розмір:   5.45 GB 
 Оцінка фільму:   10/10 (Голосів: 1)
   
Інші релізи
   Телемережа / Network (1976) 1080p Ukr/Eng | sub Eng Цікава ідея  3 / 0   8.9 GB   2013-04-19 01:04 
   Телемережа / Network (1976) Remux Ukr/Eng | sub Eng Цікава ідея  2 / 0   18.2 GB   2013-04-19 00:58 
   Телемережа / Network (1976) Цікава ідея  7 / 0   1.6 GB   2013-04-17 11:46 
   Телемережа / Network (1976) 720p Ukr/Eng | sub Eng Цікава ідея  4 / 0   4.37 GB   2013-04-17 11:46 
vash1 
Поважний учасник


З нами з: 16.03.16
Востаннє: 23.04.19
Повідомлень: 187

2019-02-04 15:40  
дякую! перегляну ще раз. 10 років тому недозацінив через вік Happy
-Star-Lord- 
VIP


З нами з: 09.08.18
Востаннє: 23.04.19
Повідомлень: 737

2019-02-04 15:40  
vash1
Будь ласка)

Ваш часовий пояс: GMT + 2 Години

Нова тема   Відповісти