Ліззі / Lizzie (2018) 1080p Ukr/Eng | Sub Eng

Нові коментарі

Нова тема   Відповісти
Автор Повідомлення
staf777 
Відео Гуртом - підтримка та поширення
Відео Гуртом - підтримка та поширення


З нами з: 16.11.16
Востаннє: 24.04.19
Повідомлень: 2284

2019-02-04 12:42  
Ліззі / Lizzie (2018) 1080p Ukr/Eng | Sub Eng

Ліззі / Lizzie (2018) 1080p Ukr/Eng | Sub Eng


Жанр: біографічний, кримінальний, драма, трилер
Країна: США



Кінокомпанія: Artina Films, Destro Films, Powder Hound Pictures, The Solution Entertainment Group
Режисер: Крейґ Вілльям Макнейлл
Актори: Крістен Стюарт, Хлоя Севіньї, Кім Дікенс, Фіона Шоу, Деніс О'Харе та інші.

Сюжет:
Важкий, атмосферний, провокаційний трилер заснований на біографії американки Ліззі Борден, яка в ніч на 4 серпня 1892 року вбила свого батька і мачуху.
За сюжетом, молода дівчина на ім'я Бріджит Салліван влаштовується служницею в будинок Ліззі Борден. Несподівано для себе Ліззі знаходить в Бріджит споріднену душу, і незабаром вони стають по-справжньому близькими. Але одного разу Бріджит виявляє батька Ліззі і її мачуху мертвими, а головною підозрюваною стає сама Ліззі…


Тривалість: 01:45:41
Якість: 1080p

Відео:
кодек:
розмір кадру: 1920x804
бітрейт: 17,1 Mб/с

Аудіо # 1:
мова: українська
переклад: багатоголосий закадровий | DniproFilm
кодек: 5.1
бітрейт: 384 кб/с

Аудіо # 2:
мова: англійська
переклад: оригінал
кодек: 5.1
бітрейт: 1509 кб/с

Субтитри:
мова: англійська
тип: програмні (м'які)
формат: *.srt
Info
General
Unique ID : 56007554551406557942474502770709561003 (0x2A22A9A2EC1596F871E15002072CFEAB)
Complete name : S:\» HD українською » Фільми в HD\Трилер\Lizzie (2018) 1080p [UKR][ENG][Hurtom].
Format :
Format version : Version 4
File size : 14.0 GiB
Duration : 1 h 45 min
Overall bit rate : 19.0 Mb/s
Movie name : Lizzie (2018) 1080p [UKR][ENG][Hurtom]
Encoded date : UTC 2019-02-04 10:41:55
Writing application : v30.1.0 ('Forever And More') 64-bit
Writing library : libebml v1.3.6 + v1.4.9
Cover : Yes
Attachments : cover.jpg

Video
ID : 1
Format : AVC
Format/Info : Advanced Video Codec
Format profile : [email protected]
Format settings : CABAC / 5 Ref Frames
Format settings, CABAC : Yes
Format settings, ReFrames : 5 frames
Codec ID : V_MPEG4/ISO/AVC
Duration : 1 h 45 min
Bit rate : 17.1 Mb/s
Width : 1 920 pixels
Height : 804 pixels
Display aspect ratio : 2.40:1
Frame rate mode : Constant
Frame rate : 23.976 (24000/1001) FPS
Color space : YUV
Chroma subsampling : 4:2:0
Bit depth : 8 bits
Scan type : Progressive
Bits/(Pixel*Frame) : 0.461
Stream size : 12.6 GiB (90%)
Writing library : core 142 r2431+42 c69a006 tMod [[email protected]:2:0 X86_64]
Encoding settings : cabac=1 / ref=5 / deblock=1:-3:-3 / analyse=0x3:0x113 / me=umh / subme=10 / psy=1 / fade_compensate=0.00 / psy_rd=1.00:0.05 / mixed_ref=1 / me_range=48 / chroma_me=1 / trellis=2 / 8x8dct=1 / cqm=0 / deadzone=21,11 / fast_pskip=0 / chroma_qp_offset=-2 / threads=48 / lookahead_threads=6 / sliced_threads=0 / nr=0 / decimate=1 / interlaced=0 / bluray_compat=0 / constrained_intra=0 / fgo=0 / bframes=8 / b_pyramid=2 / b_adapt=2 / b_bias=0 / direct=3 / weightb=1 / open_gop=0 / weightp=2 / keyint=250 / keyint_min=23 / scenecut=40 / intra_refresh=0 / rc_lookahead=40 / rc=crf / mbtree=0 / crf=16.6000 / qcomp=0.60 / qpmin=0:0:0 / qpmax=69:69:69 / qpstep=4 / vbv_maxrate=40000 / vbv_bufsize=30000 / crf_max=0.0 / nal_hrd=none / filler=0 / ip_ratio=1.40 / pb_ratio=1.30 / aq=3:0.80 / aq-sensitivity=10.00 / aq-factor=1.00:1.00:1.00 / aq2=0 / aq3=0
Language : English
Default : Yes
Forced : No
Color range : Limited
Matrix coefficients : BT.709

Audio #1
ID : 2
Format : AC-3
Format/Info : Audio Coding 3
Commercial name : Dolby Digital
Codec ID : A_AC3
Duration : 1 h 45 min
Bit rate mode : Constant
Bit rate : 384 kb/s
Channel(s) : 6 channels
Channel layout : L R C LFE Ls Rs
Sampling rate : 48.0 kHz
Frame rate : 31.250 FPS (1536 SPF)
Bit depth : 16 bits
Compression mode : Lossy
Stream size : 290 MiB (2%)
Title : [UKR-MVO-DniproFilm]
Language : Ukrainian
Service kind : Complete Main
Default : Yes
Forced : Yes

Audio #2
ID : 3
Format :
Format/Info : Digital Theater Systems
Codec ID : A_DTS
Duration : 1 h 45 min
Bit rate mode : Constant
Bit rate : 1 509 kb/s
Channel(s) : 6 channels
Channel layout : C L R Ls Rs LFE
Sampling rate : 48.0 kHz
Frame rate : 93.750 FPS (512 SPF)
Bit depth : 24 bits
Compression mode : Lossy
Stream size : 1.11 GiB (8%)
Language : English
Default : No
Forced : No

Text
ID : 4
Format : UTF-8
Codec ID : S_TEXT/UTF8
Codec ID/Info : UTF-8 Plain Text
Duration : 1 h 38 min
Bit rate : 31 b/s
Count of elements : 769
Stream size : 22.5 KiB (0%)
Language : English
Default : No
Forced : No

Menu
00:00:00.000 : en:00:00:00.000
00:06:14.124 : en:00:06:14.124
00:12:27.830 : en:00:12:27.830
00:18:58.512 : en:00:18:58.512
00:27:23.225 : en:00:27:23.225
00:36:23.932 : en:00:36:23.932
00:40:56.245 : en:00:40:56.245
00:46:26.284 : en:00:46:26.284
00:52:51.502 : en:00:52:51.502
01:00:13.360 : en:01:00:13.360
01:05:50.113 : en:01:05:50.113
01:12:18.376 : en:01:12:18.376
01:19:00.069 : en:01:19:00.069
01:27:02.509 : en:01:27:02.509
01:32:54.944 : en:01:32:54.944
01:39:32.425 : en:01:39:32.425







Робота зі звуком leicheman
Джерело: &
Особиста оцінка: 0 - не дивився
ЗАЛИШАЙТЕСЬ ЯКОМОГА ДОВШЕ НА РОЗДАЧІ!

СКАЧАВ САМ - ДАЙ СКАЧАТИ ІНШИМ



Авторський реліз (завантажувати можна без реєстрації)
 Трекер:    Зареєстрований   

Завантажити / скачати фільм українською



відео для новачків



 Зареєстрований:   2019-02-04 14:29
 Розмір:   14 GB 
 Оцінка фільму:   7.8/10 (Голосів: 8)
   
Інші релізи
   Ліззі / Lizzie (2018) Remux 1080р Ukr/Eng | Sub Eng staf777  2 / 0   17.39 GB   2019-02-04 15:50 
   Ліззі / Lizzie (2018) 1080p H.265 Ukr/Eng | Sub Eng -Star-Lord-  4 / 0   5.64 GB   2019-02-04 12:03 
   Ліззі / Lizzie (2018) Ukr/Eng | Sub Eng ssTAss  25 / 0   1.45 GB   2019-01-19 02:37 
igor911 
Відео Гуртом
Відео Гуртом


З нами з: 18.01.08
Востаннє: 24.04.19
Повідомлень: 12337

2019-02-04 19:47  
staf777 написано:
бітрейт: 17,1 Mб/с

не зрозумів сенсу цього "ріпу", якщо оригінальний ремукс має бітрейт 20 Мб/с. Якщо відео погано стискається, що якісний 1080р ріп не можна зробити менше 70% оригіналу без значної втрати якості - то такий ріп просто не роблять. В даному випадку замість двох 1080р ріпів краще було б зробити 720ку в .

Ваш часовий пояс: GMT + 2 Години

Нова тема   Відповісти