Марлі та я / Marley & Me (2008) 1080p H.265 Ukr/Eng | Sub Ukr/Eng

Нові коментарі

Нова тема   Відповісти
Автор Повідомлення
Anonymous 







2019-02-04 11:41  
Марлі та я / Marley & Me (2008) 1080p H.265 Ukr/Eng | Sub Ukr/Eng

Марлі та я / Marley & Me (2008) 1080p H.265 Ukr/Eng | Sub Ukr/Eng


Жанр: комедія, мелодрама, сімейний, романтичний
Країна: США
Кінокомпанія: 20th Century Fox
Режисер: Девід Франкель
Актори: Оуен Вілсон, Дженіфер Аністон, Ерік Дейн, Кетлін Тернер, Алан Аркін

Сюжет:
Джон і Джен вирішують завести справжню сім'ю: будинок і звичайно діти, в перспективі. Але діти, це така відповідальність! Навіщо ускладнювати власне життя, коли можна спочатку спробувати на собаці, адже вона майже як дитина…

Тривалість: 01:55:34
Якість:
Відео:
кодек: H.265 (HEVC)
розмір кадру: 1920 x 816
бітрейт: 4 998 кб/с
частота кадрів: 23.976 fps
біт піксель: 0.133 BPP
бітова глибина: 10 біт
Увага! Перед завантаженням переконайтесь, що ваш пристрій відтворення (та/або ПЗ) підтримує H.265 (HEVC)

Аудіо # 1:
мова: українська
переклад: професійний дубльований
кодек: AC-3 5.1
бітрейт: 448 кб/с

Аудіо # 2:
мова: англійська
переклад: оригінал
кодек: AC-3 5.1
бітрейт: 448 кб/с

Субтитри # 1:
мова: українська (Full),
тип: програмні (м'які)
формат: *.srt

Субтитри # 2:
мова: англійська (Full),
тип: програмні (м'які)
формат: *.srt


Info
Код:
General
Unique ID                                : 240381825073946311416594256212561022924 (0xB4D7DB020631A82CDF8C64774824CFCC)
Complete name                            : F:\Video\Films\Marley And Me (2009) 1080p H.265 [UKR_ENG].
Format                                   :
Format version                           : Version 4 / Version 2
File size                                : 4.76 GiB
Duration                                 : 1 h 55 min
Overall bit rate                         : 5 896 kb/s
Movie name                               : Marley & Me (2008)
Encoded date                             : UTC 2019-01-30 09:45:59
Writing application                      : v20.0.0 ('I Am The Sun') 64-bit
Writing library                          : libebml v1.3.5 + v1.4.8
Cover                                    : Yes
Attachments                              : cover1.jpg

Video
ID                                       : 1
Format                                   : HEVC
Format/Info                              : High Efficiency Video Coding
Format profile                           : Main [email protected]@Main
Codec ID                                 : V_MPEGH/ISO/HEVC
Duration                                 : 1 h 55 min
Bit rate                                 : 4 998 kb/s
Width                                    : 1 920 pixels
Height                                   : 816 pixels
Display aspect ratio                     : 2.35:1
Frame rate mode                          : Constant
Frame rate                               : 23.976 (24000/1001) FPS
Color space                              : YUV
Chroma subsampling                       : 4:2:0
Bit depth                                : 10 bits
Bits/(Pixel*Frame)                       : 0.133
Stream size                              : 4.03 GiB (85%)
Title                                    : Marley & Me (2008)
Writing library                          : x265 2.9+34-17120cfb5c99:[Windows][GCC 8.2.0][64 bit] 10bit
Encoding settings                        : cpuid=1111039 / frame-threads=3 / numa-pools=8 / wpp / no-pmode / no-pme / no-psnr / no-ssim / log-level=2 / input-csp=1 / input-res=1920x816 / interlace=0 / total-frames=166272 / level-idc=0 / high-tier=1 / uhd-bd=0 / ref=4 / no-allow-non-conformance / no-repeat-headers / annexb / no-aud / no-hrd / info / hash=0 / no-temporal-layers / open-gop / min-keyint=23 / keyint=250 / gop-lookahead=0 / bframes=8 / b-adapt=2 / b-pyramid / bframe-bias=0 / rc-lookahead=80 / lookahead-slices=4 / scenecut=40 / radl=0 / no-splice / no-intra-refresh / ctu=64 / min-cu-size=8 / no-rect / no-amp / max-tu-size=32 / tu-inter-depth=1 / tu-intra-depth=1 / limit-tu=0 / rdoq-level=2 / dynamic-rd=0.00 / no-ssim-rd / signhide / no-tskip / nr-intra=0 / nr-inter=0 / no-constrained-intra / no-strong-intra-smoothing / max-merge=3 / limit-refs=3 / limit-modes / me=3 / subme=5 / merange=57 / temporal-mvp / weightp / no-weightb / no-analyze-src-pics / deblock=-3:-3 / no-sao / no-sao-non-deblock / rd=4 / no-early-skip / rskip / no-fast-intra / no-tskip-fast / no-cu-lossless / no-b-intra / no-splitrd-skip / rdpenalty=0 / psy-rd=2.00 / psy-rdoq=1.00 / no-rd-refine / no-lossless / cbqpoffs=0 / crqpoffs=0 / rc=abr / bitrate=5000 / qcomp=0.60 / qpstep=4 / stats-write=0 / stats-read=2 / cplxblur=20.0 / qblur=0.5 / ipratio=1.40 / pbratio=1.30 / aq-mode=3 / aq-strength=1.00 / cutree / zone-count=0 / no-strict-cbr / qg-size=32 / no-rc-grain / qpmax=69 / qpmin=0 / no-const-vbv / sar=0 / overscan=0 / videoformat=5 / range=0 / colorprim=2 / transfer=2 / colormatrix=2 / chromaloc=0 / display-window=0 / max-cll=0,0 / min-luma=0 / max-luma=1023 / log2-max-poc-lsb=8 / vui-timing-info / vui-hrd-info / slices=1 / no-opt-qp-pps / no-opt-ref-list-length-pps / no-multi-pass-opt-rps / scenecut-bias=0.05 / no-opt-cu-delta-qp / no-aq-motion / no-hdr / no-hdr-opt / no-dhdr10-opt / no-idr-recovery-sei / analysis-reuse-level=5 / scale-factor=0 / refine-intra=0 / refine-inter=0 / refine-mv=0 / refine-ctu-distortion=0 / no-limit-sao / ctu-info=0 / no-lowpass-dct / refine-analysis-type=0 / copy-pic=1 / max-ausize-factor=1.0 / no-dynamic-refine / no-single-sei / no-hevc-aq / qp-adaptation-range=1.00
Default                                  : Yes
Forced                                   : No

Audio #1
ID                                       : 2
Format                                   : AC-3
Format/Info                              : Audio Coding 3
Codec ID                                 : A_AC3
Duration                                 : 1 h 55 min
Bit rate mode                            : Constant
Bit rate                                 : 448 kb/s
Channel(s)                               : 6 channels
Channel positions                        : Front: L C R, Side: L R, LFE
Sampling rate                            : 48.0 kHz
Frame rate                               : 31.250 FPS (1536 SPF)
Bit depth                                : 16 bits
Compression mode                         : Lossy
Stream size                              : 370 MiB (8%)
Title                                    : ПД - Blu-Ray
Language                                 : Ukrainian
Service kind                             : Complete Main
Default                                  : Yes
Forced                                   : Yes

Audio #2
ID                                       : 3
Format                                   : AC-3
Format/Info                              : Audio Coding 3
Codec ID                                 : A_AC3
Duration                                 : 1 h 55 min
Bit rate mode                            : Constant
Bit rate                                 : 448 kb/s
Channel(s)                               : 6 channels
Channel positions                        : Front: L C R, Side: L R, LFE
Sampling rate                            : 48.0 kHz
Frame rate                               : 31.250 FPS (1536 SPF)
Bit depth                                : 16 bits
Compression mode                         : Lossy
Stream size                              : 370 MiB (8%)
Title                                    : Original
Language                                 : English
Service kind                             : Complete Main
Default                                  : No
Forced                                   : No

Text #1
ID                                       : 4
Format                                   : UTF-8
Codec ID                                 : S_TEXT/UTF8
Codec ID/Info                            : UTF-8 Plain Text
Duration                                 : 1 h 51 min
Bit rate                                 : 128 b/s
Count of elements                        : 1628
Stream size                              : 104 KiB (0%)
Title                                    : Full
Language                                 : Ukrainian
Default                                  : No
Forced                                   : No

Text #2
ID                                       : 5
Format                                   : UTF-8
Codec ID                                 : S_TEXT/UTF8
Codec ID/Info                            : UTF-8 Plain Text
Duration                                 : 1 h 51 min
Bit rate                                 : 89 b/s
Count of elements                        : 1788
Stream size                              : 73.0 KiB (0%)
Title                                    : Full
Language                                 : English
Default                                  : No
Forced                                   : No

Menu
00:00:00.000                             : en:Chapter 01
00:03:49.729                             : en:Chapter 02
00:06:25.802                             : en:Chapter 03
00:10:12.862                             : en:Chapter 04
00:12:03.597                             : en:Chapter 05
00:15:56.246                             : en:Chapter 06
00:17:46.565                             : en:Chapter 07
00:20:49.164                             : en:Chapter 08
00:22:48.492                             : en:Chapter 09
00:26:09.401                             : en:Chapter 10
00:27:51.628                             : en:Chapter 11
00:32:16.017                             : en:Chapter 12
00:38:29.140                             : en:Chapter 13
00:40:14.286                             : en:Chapter 14
00:44:12.691                             : en:Chapter 15
00:46:35.125                             : en:Chapter 16
00:50:00.706                             : en:Chapter 17
00:54:45.824                             : en:Chapter 18
00:57:08.591                             : en:Chapter 19
01:00:57.487                             : en:Chapter 20
01:06:18.099                             : en:Chapter 21
01:10:13.792                             : en:Chapter 22
01:12:27.384                             : en:Chapter 23
01:15:24.603                             : en:Chapter 24
01:18:11.019                             : en:Chapter 25
01:21:54.910                             : en:Chapter 26
01:27:40.463                             : en:Chapter 27
01:37:45.484                             : en:Chapter 28
01:40:15.509                             : en:Chapter 29
01:44:10.994                             : en:Chapter 30
01:48:35.842                             : en:Chapter 31
01:52:15.478                             : en:Chapter 32
01:55:34.010                             : en:Chapter 33
Світлини





Джерело: &
Особиста оцінка: 0 - не дивився


 Трекер:    Зареєстрований   

Завантажити / скачати фільм українською



відео для новачків



 Зареєстрований:   2019-02-04 11:41
 Розмір:   4.76 GB 
 Оцінка фільму:   9.5/10 (Голосів: 2)
   
Інші релізи
   Марлі та я / Marley & Me (2008) AVC Ukr/Eng | Sub Ukr/Eng staf777  4 / 0   3.53 GB   2019-07-01 21:13 
   Марлі та я / Marley & Me (2008) 1080p Ukr/Eng | Sub Ukr/Eng staf777  1 / 0   13.37 GB   2017-01-07 22:33 
   Марлі та я / Marley & Me (2008) patriot2305  1 / 0   1.45 GB   2014-11-20 21:47 
   Марлі та я / Marley & Me (2008) 720p Ukr/Eng | Sub Multilanguage DiGen  0 / 0   6.6 GB   2010-04-08 13:06 
   Марлі та Я / Marley & Me (2008) Ukr/Eng | Sub Ukr/Eng DemsOFF  4 / 0   2.18 GB   2010-03-09 19:05 
Ваш часовий пояс: GMT + 2 Години

Нова тема   Відповісти