Ліфт на ешафот / Ascenseur pour l'échafaud / Elevator to the Gallows (1958) 1080p H.265 Ukr/Fra | Sub Eng

Нові коментарі

Нова тема   Відповісти
Автор Повідомлення
Anonymous 







2019-02-04 11:36  
Ліфт на ешафот / Ascenseur pour l'échafaud / Elevator to the Gallows (1958) 1080p H.265 Ukr/Fra | Sub Eng

Ліфт на ешафот / Ascenseur pour l'échafaud / Elevator to the Gallows (1958) 1080p H.265 Ukr/Fra | Sub Eng


Жанр: кримінальний, драма, трилер
Країна: Франція
Кінокомпанія: Nouvelles Éditions de Films
Режисер: Луї Маль / Louis Malle
Актори: Ліно Вентура / Lino Ventura, Жан-Клод Бріалі / Jean-Claude Brialy, Жанн Моро / Jeanne Moreau, Моріс Роне / Maurice Ronet, Жорж Пужулі / Georges Poujouly, Йорі Бертен / Yori Bertin, Жан Валл / Jean Wall, Елґа Андерсон / Elga Andersen, Сільвен Айзенштайн / Sylviane Aisenstein, Мішлен Бона / Micheline Bona, Ґізель Ґрандпре / Gisèle Grandpré, Жаклін Стауп / Jacqueline Staup

Сюжет:
Флоренс Карала та її коханець Жульєн Таверньє збираються вбити чоловіка Флоренс та видати його смерть за самогубство. Але після того, як вбивство скоєно, Жульєн згадує, що залишив мотузку за вікном і повертається до будинку щоб прибрати її...

Тривалість: 01:31:34
Якість:
Відео:
кодек: H.265 (HEVC)
розмір кадру: 1776 x 1080
бітрейт: 14 766 кб/с
частота кадрів: 23.976 fps
біт піксель: 0.321 BPP
бітова глибина: 10 біт
Увага! Перед завантаженням переконайтесь, що ваш пристрій відтворення (та/або ПЗ) підтримує H.265 (HEVC)

Аудіо # 1:
мова: українська
переклад: двоголосий закадровий
кодек: AC-3 2.0
бітрейт: 192 кб/с

Аудіо # 2:
мова: французька
переклад: оригінал
кодек: PCM 2.0
бітрейт: 1 152 кб/с

Субтитри # 1:
мова: англійська (Full),
тип: програмні (м'які)
формат: *.srt


Info
Код:
General
Unique ID                                : 56448314678325802074667855381911786714 (0x2A778CC9D87399AE141FA20E995754DA)
Complete name                            : F:\Video\Films\L'Ascenseur Pour l'Echafaud (1958) 1080p H.265 [UKR_ENG].
Format                                   :
Format version                           : Version 4 / Version 2
File size                                : 10.3 GiB
Duration                                 : 1 h 31 min
Overall bit rate                         : 16.1 Mb/s
Movie name                               : Elevator to the Gallows (1958)
Encoded date                             : UTC 2019-01-30 09:36:52
Writing application                      : v20.0.0 ('I Am The Sun') 64-bit
Writing library                          : libebml v1.3.5 + v1.4.8
Cover                                    : Yes
Attachments                              : cover.jpg

Video
ID                                       : 1
Format                                   : HEVC
Format/Info                              : High Efficiency Video Coding
Format profile                           : Main [email protected]@High
Codec ID                                 : V_MPEGH/ISO/HEVC
Duration                                 : 1 h 31 min
Bit rate                                 : 14.8 Mb/s
Width                                    : 1 776 pixels
Height                                   : 1 080 pixels
Display aspect ratio                     : 16:10
Frame rate mode                          : Constant
Frame rate                               : 23.976 (24000/1001) FPS
Color space                              : YUV
Chroma subsampling                       : 4:2:0
Bit depth                                : 10 bits
Bits/(Pixel*Frame)                       : 0.321
Stream size                              : 9.44 GiB (92%)
Title                                    : Elevator to the Gallows (1958)
Writing library                          : x265 2.9+2-7e978ed93d60:[Windows][GCC 8.2.0][64 bit] 10bit
Encoding settings                        : cpuid=1111039 / frame-threads=4 / numa-pools=14,14 / wpp / pmode / no-pme / no-psnr / no-ssim / log-level=2 / input-csp=1 / input-res=1776x1080 / interlace=0 / total-frames=131736 / level-idc=41 / high-tier=1 / uhd-bd=0 / ref=3 / no-allow-non-conformance / no-repeat-headers / annexb / no-aud / no-hrd / info / hash=0 / no-temporal-layers / open-gop / min-keyint=23 / keyint=240 / gop-lookahead=0 / bframes=4 / b-adapt=2 / b-pyramid / bframe-bias=0 / rc-lookahead=20 / lookahead-slices=6 / scenecut=40 / radl=0 / no-intra-refresh / ctu=32 / min-cu-size=8 / no-rect / no-amp / max-tu-size=32 / tu-inter-depth=1 / tu-intra-depth=1 / limit-tu=0 / rdoq-level=0 / dynamic-rd=0.00 / no-ssim-rd / signhide / no-tskip / nr-intra=0 / nr-inter=0 / no-constrained-intra / no-strong-intra-smoothing / max-merge=2 / limit-refs=0 / no-limit-modes / me=2 / subme=5 / merange=32 / temporal-mvp / weightp / no-weightb / no-analyze-src-pics / deblock=-3:-3 / no-sao / no-sao-non-deblock / rd=3 / no-early-skip / rskip / no-fast-intra / no-tskip-fast / no-cu-lossless / no-b-intra / no-splitrd-skip / rdpenalty=0 / psy-rd=2.00 / psy-rdoq=0.00 / no-rd-refine / no-lossless / cbqpoffs=0 / crqpoffs=0 / rc=crf / crf=20.0 / qcomp=0.60 / qpstep=4 / stats-write=0 / stats-read=0 / vbv-maxrate=50000 / vbv-bufsize=50000 / vbv-init=0.9 / crf-max=0.0 / crf-min=0.0 / ipratio=1.40 / pbratio=1.30 / aq-mode=1 / aq-strength=1.00 / cutree / zone-count=0 / no-strict-cbr / qg-size=32 / no-rc-grain / qpmax=69 / qpmin=0 / no-const-vbv / sar=0 / overscan=0 / videoformat=5 / range=0 / colorprim=1 / transfer=1 / colormatrix=1 / chromaloc=0 / display-window=0 / max-cll=0,0 / min-luma=0 / max-luma=1023 / log2-max-poc-lsb=8 / vui-timing-info / vui-hrd-info / slices=1 / no-opt-qp-pps / no-opt-ref-list-length-pps / no-multi-pass-opt-rps / scenecut-bias=0.05 / no-opt-cu-delta-qp / no-aq-motion / no-hdr / no-hdr-opt / no-dhdr10-opt / no-idr-recovery-sei / analysis-reuse-level=5 / scale-factor=0 / refine-intra=0 / refine-inter=0 / refine-mv=0 / no-limit-sao / ctu-info=0 / no-lowpass-dct / refine-mv-type=0 / copy-pic=1 / max-ausize-factor=1.0 / no-dynamic-refine / no-single-sei
Language                                 : English
Default                                  : Yes
Forced                                   : No
Color range                              : Limited
Color primaries                          : BT.709
Transfer characteristics                 : BT.709
Matrix coefficients                      : BT.709

Audio #1
ID                                       : 2
Format                                   : AC-3
Format/Info                              : Audio Coding 3
Codec ID                                 : A_AC3
Duration                                 : 1 h 31 min
Bit rate mode                            : Constant
Bit rate                                 : 192 kb/s
Channel(s)                               : 2 channels
Channel positions                        : Front: L R
Sampling rate                            : 48.0 kHz
Frame rate                               : 31.250 FPS (1536 SPF)
Bit depth                                : 16 bits
Compression mode                         : Lossy
Stream size                              : 125 MiB (1%)
Title                                    : ДЗ - УТ1
Language                                 : Ukrainian
Service kind                             : Complete Main
Default                                  : Yes
Forced                                   : Yes

Audio #2
ID                                       : 3
Format                                   : PCM
Format settings                          : Little / Signed
Codec ID                                 : A_PCM/INT/LIT
Duration                                 : 1 h 31 min
Bit rate mode                            : Constant
Bit rate                                 : 1 152 kb/s
Sampling rate                            : 48.0 kHz
Frame rate                               : 200.000 FPS (240 SPF)
Bit depth                                : 24 bits
Stream size                              : 755 MiB (7%)
Title                                    : Original
Language                                 : French
Default                                  : No
Forced                                   : No

Text
ID                                       : 4
Format                                   : UTF-8
Codec ID                                 : S_TEXT/UTF8
Codec ID/Info                            : UTF-8 Plain Text
Duration                                 : 1 h 30 min
Bit rate                                 : 33 b/s
Count of elements                        : 738
Stream size                              : 22.0 KiB (0%)
Title                                    : Full
Language                                 : English
Default                                  : Yes
Forced                                   : No

Menu
00:00:00.000                             : :Chapter 01
00:02:48.710                             : :Chapter 02
00:11:33.192                             : :Chapter 03
00:18:09.046                             : :Chapter 04
00:19:50.314                             : :Chapter 05
00:21:33.750                             : :Chapter 06
00:25:08.757                             : :Chapter 07
00:28:50.812                             : :Chapter 08
00:33:29.841                             : :Chapter 09
00:36:42.325                             : :Chapter 10
00:39:37.041                             : :Chapter 11
00:45:56.128                             : :Chapter 12
00:48:56.558                             : :Chapter 13
00:53:30.498                             : :Chapter 14
00:57:15.348                             : :Chapter 15
01:03:30.681                             : :Chapter 16
01:07:32.506                             : :Chapter 17
01:11:36.917                             : :Chapter 18
01:14:30.674                             : :Chapter 19
01:19:39.733                             : :Chapter 20
01:26:18.923                             : :Chapter 21
Світлини





Джерело: &
Особиста оцінка: 0 - не дивився


 Трекер:    Зареєстрований   

Завантажити / скачати фільм українською



відео для новачків



 Зареєстрований:   2019-02-04 11:36
 Розмір:   10.31 GB 
 Оцінка фільму:   10/10 (Голосів: 3)
   
hetzendorf 
Забанено
Забанено


З нами з: 23.07.15
Востаннє: 07.12.19
Повідомлень: 2585

2019-02-04 13:38  
А чому Ліно Вентура / Lino Ventura не вказаний? Та й Жан-Клод Бріалі / Jean-Claude Brialy не завадило б.
Цитата:
Жанна Моро / Jeanne Moreau

Жанн взагалі-то. Як і Франсуаз, Клотільд, Жаклін, Антуанетт etc.
Цитата:
Моуріс Ронет / Maurice Ronet

Моріс Роне
Цитата:
Джоржес Пойоулі / Georges Poujouly

Жорж Пужулі
Цитата:
Йорі Бертін / Yori Bertin

Йорі Бертен
Цитата:
Сілвіане Айсенштейн / Sylviane Aisenstein

Сільвен Айзенштайн
Цитата:
Мішелін Бона / Micheline Bona

Мішлен Бона

Anonymous 







2019-02-04 13:53  
hetzendorf
Дякую. Виправив!

Ваш часовий пояс: GMT + 2 Години

Нова тема   Відповісти