Транс / Trance (2013) 1080p H.265 2xUkr/Eng | Sub Ukr/Eng

Нові коментарі

Нова тема   Відповісти
Автор Повідомлення
Anonymous 







2019-02-04 11:18  
Транс / Trance (2013) 1080p H.265 2xUkr/Eng | Sub Ukr/Eng

Транс / Trance (2013) 1080p H.265 2xUkr/Eng | Sub Ukr/Eng


Жанр: кримінальний, драма, детектив, трилер
Країна: Велика Британія
Кінокомпанія: Pathé, Cloud Eight Films, Decibel Films
Режисер: Денні Бойл
Актори: Джеймс МакЕвой, Венсан Кассель, Росаріо Доусон, Дені Сепані, Метт Кросс, Вагаб Шейх, Марк Полтімор, Таппенс Мідлтон, Саймон Кунц, Майкл Шейффер

Сюжет:
Зв'язавшись із бандитами, Саймон з їхньої подачі краде картину Гої, вартість якої не один і не два мільйони доларів. Провернути справу йому було не важко, оскільки він займається продажем подібних речей на аукціонах. Проблеми настали після самої крадіжки, коли після удару по голові, хлопець геть забув, куди він сховав картину! Бандити, використовуючи тортури, намагаються витягти спогади шляхом гіпнозу. Сеанси гіпнозу раз за разом стали геть стирати кордони брехні і правди, реальності і фантазій, що призвело до несподіваного кінця.

Тривалість: 01:41:19
Якість:
Відео:
кодек: H.265 (HEVC)
розмір кадру: 1920 x 800
бітрейт: 5 031 кб/с
частота кадрів: 23.976 fps
біт піксель: 0.137 BPP
бітова глибина: 10 біт
Увага! Перед завантаженням переконайтесь, що ваш пристрій відтворення (та/або ПЗ) підтримує H.265 (HEVC)

Аудіо # 1:
мова: українська
переклад: професійний дубльований
кодек: AC-3 2.0
бітрейт: 192 кб/с

Аудіо # 2:
мова: українська
переклад: двоголосий закадровий
кодек: AC-3 2.0
бітрейт: 192 кб/с
Цитата:
Є штук 5 пропусків. Частину замінено оригіналом (там ніхто не балакає), частину (2 шт.) - з дубляжу.
відпанахати б цьому телеканалу те місце, яким вони думають, коли приймають рішення що, коли і, головне, як транслювати...


Аудіо # 3:
мова: англійська
переклад: оригінал
кодек: 5.1
бітрейт: 1510 кб/с

Субтитри # 1:
мова: українська (Full),
тип: програмні (м'які)
формат: *.srt

Субтитри # 2:
мова: англійська (Full),
тип: програмні (м'які)
формат: *.srt

Субтитри # 3:
мова: англійська (SDH),
тип: програмні (м'які)
формат: *.srt

Субтитри # 4:
мова: англійська (SDH-Colored),
тип: програмні (м'які)
формат: *.srt


Info
Код:
General
Unique ID                                : 326146686327694321892319675465000676217 (0xF55D9123617A5D86D52A9405FBD5EB79)
Complete name                            : F:\Video\Films\Trance (2013) 1080p H.265 [2xUKR_ENG].
Format                                   :
Format version                           : Version 4 / Version 2
File size                                : 4.90 GiB
Duration                                 : 1 h 41 min
Overall bit rate                         : 6 928 kb/s
Movie name                               : Trance (2013)
Encoded date                             : UTC 2019-01-31 15:56:22
Writing application                      : v20.0.0 ('I Am The Sun') 64-bit
Writing library                          : libebml v1.3.5 + v1.4.8
Cover                                    : Yes
Attachments                              : cover.jpg

Video
ID                                       : 1
Format                                   : HEVC
Format/Info                              : High Efficiency Video Coding
Format profile                           : Main [email protected]@High
Codec ID                                 : V_MPEGH/ISO/HEVC
Duration                                 : 1 h 41 min
Bit rate                                 : 5 031 kb/s
Width                                    : 1 920 pixels
Height                                   : 800 pixels
Display aspect ratio                     : 2.40:1
Frame rate mode                          : Constant
Frame rate                               : 23.976 (24000/1001) FPS
Color space                              : YUV
Chroma subsampling                       : 4:2:0
Bit depth                                : 10 bits
Bits/(Pixel*Frame)                       : 0.137
Stream size                              : 3.56 GiB (73%)
Title                                    : Trance (2013)
Writing library                          : x265 2.9+9-f74003e88622:[Windows][GCC 8.2.0][64 bit] 10bit
Encoding settings                        : cpuid=1049583 / frame-threads=5 / numa-pools=4 / wpp / no-pmode / no-pme / no-psnr / no-ssim / log-level=3 / input-csp=1 / input-res=1920x800 / interlace=0 / total-frames=0 / level-idc=51 / high-tier=1 / uhd-bd=0 / ref=5 / allow-non-conformance / no-repeat-headers / annexb / no-aud / no-hrd / info / hash=0 / no-temporal-layers / open-gop / min-keyint=24 / keyint=240 / gop-lookahead=0 / bframes=8 / b-adapt=2 / b-pyramid / bframe-bias=0 / rc-lookahead=40 / lookahead-slices=5 / scenecut=40 / radl=0 / no-intra-refresh / ctu=64 / min-cu-size=8 / no-rect / no-amp / max-tu-size=32 / tu-inter-depth=1 / tu-intra-depth=1 / limit-tu=0 / rdoq-level=0 / dynamic-rd=0.00 / no-ssim-rd / signhide / no-tskip / nr-intra=0 / nr-inter=0 / no-constrained-intra / no-strong-intra-smoothing / max-merge=2 / limit-refs=3 / no-limit-modes / me=3 / subme=7 / merange=57 / temporal-mvp / weightp / no-weightb / no-analyze-src-pics / deblock=-3:-3 / no-sao / no-sao-non-deblock / rd=3 / no-early-skip / rskip / no-fast-intra / no-tskip-fast / no-cu-lossless / no-b-intra / no-splitrd-skip / rdpenalty=0 / psy-rd=2.00 / psy-rdoq=0.00 / no-rd-refine / no-lossless / cbqpoffs=0 / crqpoffs=0 / rc=crf / crf=18.0 / qcomp=0.70 / qpstep=4 / stats-write=0 / stats-read=0 / vbv-maxrate=50000 / vbv-bufsize=50000 / vbv-init=0.9 / crf-max=0.0 / crf-min=0.0 / ipratio=1.40 / pbratio=1.30 / aq-mode=1 / aq-strength=1.00 / cutree / zone-count=0 / no-strict-cbr / qg-size=32 / no-rc-grain / qpmax=69 / qpmin=0 / no-const-vbv / sar=1 / overscan=0 / videoformat=5 / range=0 / colorprim=2 / transfer=2 / colormatrix=2 / chromaloc=0 / display-window=0 / max-cll=0,0 / min-luma=0 / max-luma=1023 / log2-max-poc-lsb=8 / vui-timing-info / vui-hrd-info / slices=1 / no-opt-qp-pps / no-opt-ref-list-length-pps / no-multi-pass-opt-rps / scenecut-bias=0.05 / no-opt-cu-delta-qp / no-aq-motion / no-hdr / no-hdr-opt / no-dhdr10-opt / no-idr-recovery-sei / analysis-reuse-level=5 / scale-factor=0 / refine-intra=0 / refine-inter=0 / refine-mv=0 / no-limit-sao / ctu-info=0 / no-lowpass-dct / refine-mv-type=0 / copy-pic=1 / max-ausize-factor=1.0 / no-dynamic-refine / no-single-sei
Language                                 : English
Default                                  : Yes
Forced                                   : No

Audio #1
ID                                       : 2
Format                                   : AC-3
Format/Info                              : Audio Coding 3
Codec ID                                 : A_AC3
Duration                                 : 1 h 41 min
Bit rate mode                            : Constant
Bit rate                                 : 192 kb/s
Channel(s)                               : 2 channels
Channel positions                        : Front: L R
Sampling rate                            : 48.0 kHz
Frame rate                               : 31.250 FPS (1536 SPF)
Bit depth                                : 16 bits
Compression mode                         : Lossy
Stream size                              : 139 MiB (3%)
Title                                    : ПД - iTunes
Language                                 : Ukrainian
Service kind                             : Complete Main
Default                                  : Yes
Forced                                   : Yes

Audio #2
ID                                       : 3
Format                                   : AC-3
Format/Info                              : Audio Coding 3
Codec ID                                 : A_AC3
Duration                                 : 1 h 41 min
Bit rate mode                            : Constant
Bit rate                                 : 192 kb/s
Channel(s)                               : 2 channels
Channel positions                        : Front: L R
Sampling rate                            : 48.0 kHz
Frame rate                               : 31.250 FPS (1536 SPF)
Bit depth                                : 16 bits
Compression mode                         : Lossy
Stream size                              : 139 MiB (3%)
Title                                    : ДЗ - 2+2
Language                                 : Ukrainian
Service kind                             : Complete Main
Default                                  : No
Forced                                   : No

Audio #3
ID                                       : 4
Format                                   :
Format/Info                              : Digital Theater Systems
Format profile                           : ES Matrix / Core
Codec ID                                 : A_DTS
Duration                                 : 1 h 41 min
Bit rate mode                            : Constant
Bit rate                                 : 1 509 kb/s
Channel(s)                               : 7 channels / 6 channels
Channel positions                        : Front: L C R, Side: L R, Back: C, LFE / Front: L C R, Side: L R, LFE
Sampling rate                            : 48.0 kHz
Frame rate                               : 93.750 FPS (512 SPF)
Bit depth                                : 24 bits
Compression mode                         : Lossy
Delay relative to video                  : 11 ms
Stream size                              : 1.07 GiB (22%)
Title                                    : Original
Language                                 : English
Default                                  : No
Forced                                   : No

Text #1
ID                                       : 5
Format                                   : UTF-8
Codec ID                                 : S_TEXT/UTF8
Codec ID/Info                            : UTF-8 Plain Text
Duration                                 : 1 h 34 min
Bit rate                                 : 83 b/s
Count of elements                        : 1080
Stream size                              : 58.0 KiB (0%)
Title                                    : Full
Language                                 : Ukrainian
Default                                  : Yes
Forced                                   : No

Text #2
ID                                       : 6
Format                                   : UTF-8
Codec ID                                 : S_TEXT/UTF8
Codec ID/Info                            : UTF-8 Plain Text
Duration                                 : 1 h 34 min
Bit rate                                 : 51 b/s
Count of elements                        : 1153
Stream size                              : 36.0 KiB (0%)
Title                                    : Full
Language                                 : English
Default                                  : No
Forced                                   : No

Text #3
ID                                       : 7
Format                                   : UTF-8
Codec ID                                 : S_TEXT/UTF8
Codec ID/Info                            : UTF-8 Plain Text
Duration                                 : 1 h 34 min
Bit rate                                 : 57 b/s
Count of elements                        : 1314
Stream size                              : 39.9 KiB (0%)
Title                                    : SDH
Language                                 : English
Default                                  : No
Forced                                   : No

Text #4
ID                                       : 8
Format                                   : UTF-8
Codec ID                                 : S_TEXT/UTF8
Codec ID/Info                            : UTF-8 Plain Text
Duration                                 : 1 h 34 min
Bit rate                                 : 70 b/s
Count of elements                        : 1314
Stream size                              : 48.9 KiB (0%)
Title                                    : SDH-Colored
Language                                 : English
Default                                  : No
Forced                                   : No

Menu
00:00:00.000                             : :Chapter 01
00:04:05.870                             : :Chapter 02
00:08:18.831                             : :Chapter 03
00:10:09.859                             : :Chapter 04
00:13:06.785                             : :Chapter 05
00:15:42.650                             : :Chapter 06
00:17:33.676                             : :Chapter 07
00:21:57.274                             : :Chapter 08
00:23:46.633                             : :Chapter 09
00:25:54.719                             : :Chapter 10
00:28:11.398                             : :Chapter 11
00:31:08.533                             : :Chapter 12
00:33:40.643                             : :Chapter 13
00:36:31.272                             : :Chapter 14
00:39:10.723                             : :Chapter 15
00:41:49.340                             : :Chapter 16
00:45:58.881                             : :Chapter 17
00:51:51.483                             : :Chapter 18
00:59:00.286                             : :Chapter 19
01:02:10.893                             : :Chapter 20
01:08:08.584                             : :Chapter 21
01:12:06.822                             : :Chapter 22
01:14:36.138                             : :Chapter 23
01:16:13.151                             : :Chapter 24
01:25:36.548                             : :Chapter 25
01:28:16.290                             : :Chapter 26
01:31:34.780                             : :Chapter 27
01:35:32.768                             : :Chapter 28
Світлини





Джерело: &
Особиста оцінка: 0 - не дивився


 Трекер:    Зареєстрований   

Завантажити / скачати фільм українською



відео для новачків



 Зареєстрований:   2019-02-04 11:18
 Розмір:   4.9 GB 
 Оцінка фільму:   8.8/10 (Голосів: 5)
   
Інші релізи
   Транс / Trance (2013) AVC 2xUkr/Eng | Sub Ukr/Eng Maters  3 / 1   2.14 GB   2019-11-03 10:17 
   Транс / Trance (2013) 2xUkr/Eng | Sub Ukr/Eng Arsenfpu  2 / 0   1.95 GB   2018-02-02 16:32 
   Транс / Trance (2013) 1080p Ukr/Eng | Sub Ukr/Eng sergiyko  2 / 0   10 GB   2013-08-01 11:49 
   Транс / Trance (2013) AVC sergiyko  5 / 0   1.7 GB   2013-08-01 01:27 
   Транс / Trance (2013) 720p Ukr/Eng | Sub Ukr/Eng sergiyko  2 / 0   5.46 GB   2013-08-01 01:13 
vash1 
Поважний учасник


З нами з: 16.03.16
Востаннє: 13.11.19
Повідомлень: 214

2019-02-04 14:48  
дякую. вже є у колекції. хороше кіно. тримає від початку до кінця.
Ваш часовий пояс: GMT + 2 Години

Нова тема   Відповісти