Лепрекон повертається / Leprechaun Returns (2018) 1080p Ukr/Eng | Sub Eng

Нові коментарі

Нова тема   Відповісти
Автор Повідомлення
Anonymous 







2019-02-04 11:11  
Лепрекон повертається / Leprechaun Returns (2018) 1080p Ukr/Eng | Sub Eng

Лепрекон повертається / Leprechaun Returns (2018) 1080p Ukr/Eng | Sub Eng


Жанр: жахи, фентезі, комедія
Країна: США
Кінокомпанія: Blue Ice Pictures, Out of Africa Entertainment, Syfy
Режисер: Стівен Костанськи
Актори: Тейлор Спрейтлер, Пепі Сонуга, Сай Беннет, Лінден Порко, Марк Голтон, Бен МакГрегор, Леон Клайнгман, Емілі Рейд, Хізер МакДональд та інші

Сюжет:
Лепрекон з'являється у сучасному світі, після того як кілька дівчат із сестринства випадково його будять, коли зносять стару хатину, аби побудувати новий дім для сестринства.

Реліз без реклами

Тривалість: 01:32:55
Якість:
Відео:
кодек:
розмір кадру: 1920 x 1080
бітрейт: 8 209 кб/с
частота кадрів: 23.976 fps
біт піксель: 0.165 BPP
бітова глибина: 8 біт
Увага! Перед завантаженням переконайтесь, що ваш пристрій відтворення (та/або ПЗ) підтримує H.265 (HEVC)

Аудіо # 1:
мова: українська
переклад: багатоголосий закадровий | DniproFilm
кодек: AC-3 5.1
бітрейт: 384 кб/с
Підтримати українське озвучення
Для студії DniproFilm дуже важлива популярність, чим популярнішою буде студія, тим більшу кількість українського озвучення до нових фільмів та серіалів в неї замовлятимуть. Тому прохання до не байдужих підписуватися на їх телеграм канал
Аудіо # 2:
мова: англійська
переклад: оригінал
кодек: E-AC-3 5.1
бітрейт: 640 кб/с

Субтитри # 1:
мова: англійська (Full),
тип: програмні (м'які)
формат: *.srt


Info
Код:
General
Unique ID                                : 38426637415416747307396919718228294780 (0x1CE8B37F9E35846840774DFACB247C7C)
Complete name                            : F:\Video\Films\Leprechaun Returns (2018) 1080p [UKR_ENG].
Format                                   :
Format version                           : Version 4 / Version 2
File size                                : 6.00 GiB
Duration                                 : 1 h 32 min
Overall bit rate                         : 9 239 kb/s
Movie name                               : Leprechaun Returns (2018)
Encoded date                             : UTC 2019-01-31 09:58:40
Writing application                      : v20.0.0 ('I Am The Sun') 64-bit
Writing library                          : libebml v1.3.5 + v1.4.8
Cover                                    : Yes
Attachments                              : cover.jpg

Video
ID                                       : 1
Format                                   : AVC
Format/Info                              : Advanced Video Codec
Format profile                           : [email protected]
Format settings                          : CABAC / 4 Ref Frames
Format settings, CABAC                   : Yes
Format settings, ReFrames                : 4 frames
Codec ID                                 : V_MPEG4/ISO/AVC
Duration                                 : 1 h 32 min
Bit rate                                 : 8 209 kb/s
Width                                    : 1 920 pixels
Height                                   : 1 080 pixels
Display aspect ratio                     : 16:9
Frame rate mode                          : Constant
Frame rate                               : 23.976 (24000/1001) FPS
Color space                              : YUV
Chroma subsampling                       : 4:2:0
Bit depth                                : 8 bits
Scan type                                : Progressive
Bits/(Pixel*Frame)                       : 0.165
Stream size                              : 5.33 GiB (89%)
Title                                    : Leprechaun Returns (2018)
Default                                  : Yes
Forced                                   : No
Color range                              : Limited
Color primaries                          : BT.709
Transfer characteristics                 : BT.709
Matrix coefficients                      : BT.709

Audio #1
ID                                       : 2
Format                                   : AC-3
Format/Info                              : Audio Coding 3
Codec ID                                 : A_AC3
Duration                                 : 1 h 32 min
Bit rate mode                            : Constant
Bit rate                                 : 384 kb/s
Channel(s)                               : 6 channels
Channel positions                        : Front: L C R, Side: L R, LFE
Sampling rate                            : 48.0 kHz
Frame rate                               : 31.250 FPS (1536 SPF)
Bit depth                                : 16 bits
Compression mode                         : Lossy
Stream size                              : 255 MiB (4%)
Title                                    : БЗ - DniproFilm
Language                                 : Ukrainian
Service kind                             : Complete Main
Default                                  : Yes
Forced                                   : Yes

Audio #2
ID                                       : 3
Format                                   : E-AC-3
Format/Info                              : Enhanced Audio Coding 3
Codec ID                                 : A_EAC3
Duration                                 : 1 h 32 min
Bit rate mode                            : Constant
Bit rate                                 : 640 kb/s
Channel(s)                               : 6 channels
Channel positions                        : Front: L C R, Side: L R, LFE
Sampling rate                            : 48.0 kHz
Frame rate                               : 187.500 FPS (256 SPF)
Compression mode                         : Lossy
Stream size                              : 425 MiB (7%)
Title                                    : Original
Language                                 : English
Service kind                             : Complete Main
Default                                  : No
Forced                                   : No

Text
ID                                       : 4
Format                                   : UTF-8
Codec ID                                 : S_TEXT/UTF8
Codec ID/Info                            : UTF-8 Plain Text
Duration                                 : 1 h 28 min
Bit rate                                 : 47 b/s
Count of elements                        : 1188
Stream size                              : 30.6 KiB (0%)
Title                                    : Full
Language                                 : English
Default                                  : Yes
Forced                                   : No
Світлини





Джерело: &
Особиста оцінка: 0 - не дивився


Авторський реліз (завантажувати можна без реєстрації)
 Трекер:    Зареєстрований   

Завантажити / скачати фільм українською



відео для новачків



 Зареєстрований:   2019-02-04 11:11
 Розмір:   6 GB 
 Оцінка фільму:   5.5/10 (Голосів: 2)
   
Ваш часовий пояс: GMT + 2 Години

Нова тема   Відповісти