Народження зірки / A Star Is Born (2018) 1080p H.265 Ukr/Eng | Sub Eng

Нові коментарі

Нова тема   Відповісти
Автор Повідомлення
Anonymous 







2019-02-04 11:29  
Народження зірки / A Star Is Born (2018) 1080p H.265 Ukr/Eng | Sub Eng

Народження зірки / A Star Is Born (2018) 1080p H.265 Ukr/Eng | Sub Eng


Жанр: драма, музичний, романтичний
Країна: США
Кінокомпанія: Warner Bros. Pictures, Live Nation Productions, Metro-Goldwyn-Mayer (MGM), Peters Entertainment, Gerber Pictures, Malpaso Productions, Thunder Road Pictures
Режисер: Бредлі Купер
Актори: Леді Гага, Бредлі Купер, Сем Елліотт, Ендрю Дайс Клей, Рафі Гаврон, Ентоні Рамос, Дейв Шапелл, Алек Болдуін

Сюжет:
Джексон Мейн колись був вельми успішним музикантом, який виконував пісні у стилі кантрі. Зараз його музичний шлях усе ближче і ближче до заходу, він уже далеко не такий цікавий публіці, як раніше. Та і пристрасть до алкоголю не сильно допомагає Джексону виступати. Чоловік в одному закладі випадково зустрів дівчину з божественним голосом – її звуть Еллі. Вона давно мріяла стати відомою співачкою, але вже зневірилася в цій мрії. Людям подобається її голос, але не зовнішність... Але Джек вирішив будь-якою ціною допомогти Еллі запустити кар'єру. І вони закохалися... Дівчина стає все більш популярною, а чоловік переживає кінець творчої кар'єри. Тільки це може перешкодити їхньому коханню.

Тривалість: 02:15:45
Якість:
Відео:
кодек: H.265 (HEVC)
розмір кадру: 1920 x 800
бітрейт: 6 324 кб/с
частота кадрів: 23.976 fps
біт піксель: 0.172 BPP
бітова глибина: 10 біт
Увага! Перед завантаженням переконайтесь, що ваш пристрій відтворення (та/або ПЗ) підтримує H.265 (HEVC)

Аудіо # 1:
мова: українська
переклад: професійний дубльований
кодек: AC-3 2.0
бітрейт: 192 кб/с

Аудіо # 2:
мова: англійська
переклад: оригінал
кодек: AC-3 5.1
бітрейт: 640 кб/с

Субтитри # 1:
мова: українська (Forced),
тип: програмні (м'які)
формат: *.srt

Субтитри # 2:
мова: англійська (Full),
тип: програмні (м'які)
формат: *.srt

Субтитри # 3:
мова: англійська (SDH),
тип: програмні (м'які)
формат: *.srt


Info
Код:
General
Unique ID                                : 3351641800296416542329233431861099743 (0x28580B2F3F385B4B682F67D6BFB7CDF)
Complete name                            : F:\Video\Collection\Films\A Star Is Born (2018) 1080p H.265 [UKR_ENG].
Format                                   :
Format version                           : Version 4 / Version 2
File size                                : 6.79 GiB
Duration                                 : 2 h 15 min
Overall bit rate                         : 7 159 kb/s
Movie name                               : A Star Is Born (2018)
Encoded date                             : UTC 2019-01-30 08:43:22
Writing application                      : v20.0.0 ('I Am The Sun') 64-bit
Writing library                          : libebml v1.3.5 + v1.4.8
Cover                                    : Yes
Attachments                              : cover

Video
ID                                       : 1
Format                                   : HEVC
Format/Info                              : High Efficiency Video Coding
Format profile                           : Main [email protected]@High
Codec ID                                 : V_MPEGH/ISO/HEVC
Duration                                 : 2 h 15 min
Bit rate                                 : 6 324 kb/s
Width                                    : 1 920 pixels
Height                                   : 800 pixels
Display aspect ratio                     : 2.40:1
Frame rate mode                          : Constant
Frame rate                               : 23.976 (24000/1001) FPS
Color space                              : YUV
Chroma subsampling                       : 4:2:0
Bit depth                                : 10 bits
Bits/(Pixel*Frame)                       : 0.172
Stream size                              : 6.00 GiB (88%)
Title                                    : A Star Is Born (2018)
Writing library                          : x265 2.9+2-7e978ed93d60:[Windows][GCC 8.2.0][64 bit] 10bit
Encoding settings                        : cpuid=1111039 / frame-threads=4 / numa-pools=14,14 / wpp / pmode / no-pme / no-psnr / no-ssim / log-level=2 / input-csp=1 / input-res=1920x800 / interlace=0 / total-frames=195288 / level-idc=41 / high-tier=1 / uhd-bd=0 / ref=3 / no-allow-non-conformance / no-repeat-headers / annexb / no-aud / no-hrd / info / hash=0 / no-temporal-layers / open-gop / min-keyint=23 / keyint=240 / gop-lookahead=0 / bframes=4 / b-adapt=2 / b-pyramid / bframe-bias=0 / rc-lookahead=20 / lookahead-slices=5 / scenecut=40 / radl=0 / no-intra-refresh / ctu=32 / min-cu-size=8 / no-rect / no-amp / max-tu-size=32 / tu-inter-depth=1 / tu-intra-depth=1 / limit-tu=0 / rdoq-level=0 / dynamic-rd=0.00 / no-ssim-rd / signhide / no-tskip / nr-intra=0 / nr-inter=0 / no-constrained-intra / no-strong-intra-smoothing / max-merge=2 / limit-refs=0 / no-limit-modes / me=2 / subme=5 / merange=32 / temporal-mvp / weightp / no-weightb / no-analyze-src-pics / deblock=-3:-3 / no-sao / no-sao-non-deblock / rd=3 / no-early-skip / rskip / no-fast-intra / no-tskip-fast / no-cu-lossless / no-b-intra / no-splitrd-skip / rdpenalty=0 / psy-rd=2.00 / psy-rdoq=0.00 / no-rd-refine / no-lossless / cbqpoffs=0 / crqpoffs=0 / rc=crf / crf=18.0 / qcomp=0.60 / qpstep=4 / stats-write=0 / stats-read=0 / vbv-maxrate=50000 / vbv-bufsize=50000 / vbv-init=0.9 / crf-max=0.0 / crf-min=0.0 / ipratio=1.40 / pbratio=1.30 / aq-mode=1 / aq-strength=1.00 / cutree / zone-count=0 / no-strict-cbr / qg-size=32 / no-rc-grain / qpmax=69 / qpmin=0 / no-const-vbv / sar=0 / overscan=0 / videoformat=5 / range=0 / colorprim=1 / transfer=1 / colormatrix=1 / chromaloc=0 / display-window=0 / max-cll=0,0 / min-luma=0 / max-luma=1023 / log2-max-poc-lsb=8 / vui-timing-info / vui-hrd-info / slices=1 / no-opt-qp-pps / no-opt-ref-list-length-pps / no-multi-pass-opt-rps / scenecut-bias=0.05 / no-opt-cu-delta-qp / no-aq-motion / no-hdr / no-hdr-opt / no-dhdr10-opt / no-idr-recovery-sei / analysis-reuse-level=5 / scale-factor=0 / refine-intra=0 / refine-inter=0 / refine-mv=0 / no-limit-sao / ctu-info=0 / no-lowpass-dct / refine-mv-type=0 / copy-pic=1 / max-ausize-factor=1.0 / no-dynamic-refine / no-single-sei
Language                                 : English
Default                                  : Yes
Forced                                   : No
Color range                              : Limited
Color primaries                          : BT.709
Transfer characteristics                 : BT.709
Matrix coefficients                      : BT.709

Audio #1
ID                                       : 2
Format                                   : AC-3
Format/Info                              : Audio Coding 3
Codec ID                                 : A_AC3
Duration                                 : 2 h 15 min
Bit rate mode                            : Constant
Bit rate                                 : 192 kb/s
Channel(s)                               : 2 channels
Channel positions                        : Front: L R
Sampling rate                            : 48.0 kHz
Frame rate                               : 31.250 FPS (1536 SPF)
Bit depth                                : 16 bits
Compression mode                         : Lossy
Stream size                              : 186 MiB (3%)
Title                                    : ПД - iTunes
Language                                 : Ukrainian
Service kind                             : Complete Main
Default                                  : Yes
Forced                                   : Yes

Audio #2
ID                                       : 3
Format                                   : AC-3
Format/Info                              : Audio Coding 3
Codec ID                                 : A_AC3
Duration                                 : 2 h 15 min
Bit rate mode                            : Constant
Bit rate                                 : 640 kb/s
Channel(s)                               : 6 channels
Channel positions                        : Front: L C R, Side: L R, LFE
Sampling rate                            : 48.0 kHz
Frame rate                               : 31.250 FPS (1536 SPF)
Bit depth                                : 16 bits
Compression mode                         : Lossy
Stream size                              : 621 MiB (9%)
Title                                    : Original
Language                                 : English
Service kind                             : Complete Main
Default                                  : No
Forced                                   : No

Text #1
ID                                       : 4
Format                                   : UTF-8
Codec ID                                 : S_TEXT/UTF8
Codec ID/Info                            : UTF-8 Plain Text
Duration                                 : 1 h 26 min
Bit rate                                 : 0 b/s
Count of elements                        : 8
Stream size                              : 406 Bytes (0%)
Title                                    : Forced
Language                                 : Ukrainian
Default                                  : Yes
Forced                                   : Yes

Text #2
ID                                       : 5
Format                                   : UTF-8
Codec ID                                 : S_TEXT/UTF8
Codec ID/Info                            : UTF-8 Plain Text
Duration                                 : 2 h 14 min
Bit rate                                 : 70 b/s
Count of elements                        : 2151
Stream size                              : 69.3 KiB (0%)
Title                                    : Full
Language                                 : English
Default                                  : No
Forced                                   : No

Text #3
ID                                       : 6
Format                                   : UTF-8
Codec ID                                 : S_TEXT/UTF8
Codec ID/Info                            : UTF-8 Plain Text
Duration                                 : 2 h 15 min
Bit rate                                 : 75 b/s
Count of elements                        : 2327
Stream size                              : 75.1 KiB (0%)
Title                                    : SDH
Language                                 : English
Default                                  : No
Forced                                   : No

Menu
00:00:00.000                             : :Chapter 01
00:08:03.316                             : :Chapter 02
00:15:25.674                             : :Chapter 03
00:20:26.099                             : :Chapter 04
00:29:59.839                             : :Chapter 05
00:36:07.832                             : :Chapter 06
00:38:33.519                             : :Chapter 07
00:49:23.669                             : :Chapter 08
00:54:12.290                             : :Chapter 09
00:56:41.648                             : :Chapter 10
01:07:03.644                             : :Chapter 11
01:15:37.533                             : :Chapter 12
01:21:02.357                             : :Chapter 13
01:24:22.015                             : :Chapter 14
01:34:38.297                             : :Chapter 15
01:43:44.801                             : :Chapter 16
01:50:53.063                             : :Chapter 17
02:01:20.606                             : :Chapter 18
02:05:20.429                             : :Chapter 19
Світлини





Джерело: &
Особиста оцінка: 10 - без зайвих вагань рекомендую всім!


 Трекер:    Зареєстрований   

Завантажити / скачати фільм українською



відео для новачків



 Зареєстрований:   2019-02-04 11:29
 Розмір:   6.79 GB 
 Оцінка фільму:   8.6/10 (Голосів: 18)
   
Інші релізи
Fonbaron 
Свій


З нами з: 09.12.12
Востаннє: 16.09.20
Повідомлень: 146

2019-02-19 21:30  
Фільм шикарний ))
omm 
Відео Гуртом - фільмокрай
Відео Гуртом - фільмокрай


З нами з: 12.06.12
Востаннє: 20.09.20
Повідомлень: 2422

2019-04-10 20:37  
Один з кращих фільмів 2018 року. Потужне і в емоційному, і в художньому аспектах кіно. Леді Ґаґа зіграла неймовірно.

8,5 з 10

Maters 
Відео Гуртом - підтримка та поширення
Відео Гуртом - підтримка та поширення


З нами з: 27.03.12
Востаннє: 20.09.20
Повідомлень: 2292

2019-04-21 20:24  
omm написано:
Леді Ґаґа зіграла неймовірно

я теж був дуже приємно вражений

Ваш часовий пояс: GMT + 2 Години

Нова тема   Відповісти