Дівчина у павутинні / The Girl in the Spider's Web (2018) UHD Remux 4K 2160p HDR H.265 Ukr/Eng | Sub Ukr/Eng

Нові коментарі

Нова тема   Відповісти
Автор Повідомлення
antik_2008 
Релізер і модератор відео


З нами з: 20.10.08
Востаннє: 20.04.19
Повідомлень: 1949

2019-02-04 02:36  
Дівчина у павутинні / The Girl in the Spider's Web (2018) UHD Remux 4K 2160p HDR H.265 Ukr/Eng | Sub Ukr/Eng

Дівчина у павутинні / The Girl in the Spider's Web (2018) UHD Remux 4K 2160p HDR H.265 Ukr/Eng | Sub Ukr/Eng


Жанр: бойовик, драма, кримінальний, трилер, детектив
Країна: США, Велика Британія, Канада, Німеччина, Швеція





Кінокомпанія: Metro-Goldwyn-Mayer, Sony Pictures Entertainment
Режисер: Федеріко Альварес
Актори: Клер Фой, Сверрір Гуднасон, Бо Гадсдон, Лейкіт Стенфілд, Сільвія Хукс, Стівен Мерчант, Клас Банг, Сінневе Макоді Лунд, Мікаел Персбрандт, Кемерон Бріттон

Сюжет:
У світі сучасних технологій дуже цінні ті люди, які вміють зламувати різні системи. Це може принести величезні фінанси та вплив. Хакер Лісбет Саландер якраз є однією з таких людей. Її просить про захист якийсь професор Болдер, який хоче захистити роботу всього свого життя. Крім того, бідоласі також допоможе відомий журналіст Мікаель Блумквіст, який працює в журналі "Міленіум". Ніхто навіть не підозрював у яку небезпеку потраплять всі ці герої. Їм будуть загрожувати дуже розумні кіберзлочинці "павуки". Їх мета – тероризувати Стокгольм і всю Швецію, зокрема Блумквиста та Саландер. Останні ж будуть робити все можливе, щоб цього не сталося.


Тривалість: 01:55:25
Якість: 4K UltraHD Remux 2160p

Відео:
кодек: H.265 (HEVC)
розмір кадру: 3840x2160
бітрейт: ~54100 кб/с
бітова глибина: 10 біт
кольоровий простір: BT.2020 (HDR)

Аудіо # 1:
мова: українська
переклад: професійний дубльований | студія LeDoyen
кодек: 5.1
бітрейт: 640 кб/с

Аудіо # 2:
мова: українська
переклад: професійний дубльований | студія LeDoyen
кодек: 2.0
бітрейт: 192 кб/с

Аудіо # 3:
мова: англійська
переклад: оригінал
кодек: 5.1
бітрейт: 640 кб/с

Аудіо # 4:
мова: англійська
переклад: оригінал
кодек: TrueHD 5.1
бітрейт: 4529 кб/с

Субтитри (Forced, Full):
мова: українська
тип: програмні (м'які)
формат: *.srt

Субтитри:
мова: англійська
тип: програмні (м'які)
формат: *.srt
Info
General
Unique ID : 166880935134945271227536205888735645622 (0x7D8C1958DFFA1B8A447A948ECE9B8FB6)
Complete name : D:\Гуртом\The Girl in the Spider's Web (2018) [UKR_ENG] Remux 4K 2160p (HEVC) HDR H.265 [ViDeO_Hurtom].
Format :
Format version : Version 4
File size : 48.5 GiB
Duration : 1 h 55 min
Overall bit rate mode : Variable
Overall bit rate : 60.2 Mb/s
Movie name : The Girl in the Spider's Web (2018) [UKR_ENG] Remux 4K 2160p (HEVC) HDR H.265 [ViDeO_Hurtom]
Encoded date : UTC 2019-03-02 15:28:46
Writing application : v30.1.0 ('Forever And More') 64-bit
Writing library : libebml v1.3.6 + v1.4.9

Video
ID : 1
Format : HEVC
Format/Info : High Efficiency Video Coding
Commercial name : HDR10
Format profile : Main [email protected]@High
Codec ID : V_MPEGH/ISO/HEVC
Duration : 1 h 55 min
Bit rate : 54.1 Mb/s
Width : 3 840 pixels
Height : 2 160 pixels
Display aspect ratio : 16:9
Frame rate mode : Constant
Frame rate : 23.976 (24000/1001) FPS
Color space : YUV
Chroma subsampling : 4:2:0 (Type 2)
Bit depth : 10 bits
Bits/(Pixel*Frame) : 0.272
Stream size : 43.6 GiB (90%)
Language : English
Default : Yes
Forced : No
Color range : Limited
Color primaries : BT.2020
Transfer characteristics : PQ
Matrix coefficients : BT.2020 non-constant
Mastering display color primaries : Display P3
Mastering display luminance : min: 0.0050 cd/m2, max: 4000 cd/m2
Maximum Content Light Level : 3894 cd/m2
Maximum Frame-Average Light Level : 996 cd/m2

Audio #1
ID : 2
Format : AC-3
Format/Info : Audio Coding 3
Commercial name : Dolby Digital
Codec ID : A_AC3
Duration : 1 h 55 min
Bit rate mode : Constant
Bit rate : 640 kb/s
Channel(s) : 6 channels
Channel layout : L R C LFE Ls Rs
Sampling rate : 48.0 kHz
Frame rate : 31.250 FPS (1536 SPF)
Bit depth : 16 bits
Compression mode : Lossy
Delay relative to video : -8 ms
Stream size : 528 MiB (1%)
Title : , 6 ch, 640 Кбт/с
Language : Ukrainian
Service kind : Complete Main
Default : Yes
Forced : No

Audio #2
ID : 3
Format : AC-3
Format/Info : Audio Coding 3
Commercial name : Dolby Digital
Codec ID : A_AC3
Duration : 1 h 55 min
Bit rate mode : Constant
Bit rate : 192 kb/s
Channel(s) : 2 channels
Channel layout : L R
Sampling rate : 48.0 kHz
Frame rate : 31.250 FPS (1536 SPF)
Bit depth : 16 bits
Compression mode : Lossy
Delay relative to video : -8 ms
Stream size : 159 MiB (0%)
Title : , 2 ch, 192 Кбт/с
Language : Ukrainian
Service kind : Complete Main
Default : No
Forced : No

Audio #3
ID : 4
Format : AC-3
Format/Info : Audio Coding 3
Commercial name : Dolby Digital
Codec ID : A_AC3
Duration : 1 h 55 min
Bit rate mode : Constant
Bit rate : 640 kb/s
Channel(s) : 6 channels
Channel layout : L R C LFE Ls Rs
Sampling rate : 48.0 kHz
Frame rate : 31.250 FPS (1536 SPF)
Bit depth : 16 bits
Compression mode : Lossy
Stream size : 528 MiB (1%)
Title : , 6 ch, 640 Кбт/с
Language : English
Service kind : Complete Main
Default : No
Forced : No

Audio #4
ID : 5
Format : MLP FBA 16-ch
Format/Info : Meridian Lossless Packing FBA with 16-channel presentation
Commercial name : Dolby TrueHD with Dolby Atmos
Codec ID : A_TRUEHD
Duration : 1 h 55 min
Bit rate mode : Variable
Bit rate : 4 529 kb/s
Maximum bit rate : 7 839 kb/s
Channel(s) : 8 channels
Channel layout : L R C LFE Ls Rs Lb Rb
Sampling rate : 48.0 kHz
Frame rate : 1 200.000 FPS (40 SPF)
Compression mode : Lossless
Stream size : 3.65 GiB (8%)
Title : TrueHD, 6 ch, 4529 Кбт/с
Language : English
Default : No
Forced : No
Number of dynamic objects : 11
Bed channel count : 1 channel
Bed channel configuration : LFE

Text #1
ID : 6
Format : UTF-8
Codec ID : S_TEXT/UTF8
Codec ID/Info : UTF-8 Plain Text
Duration : 1 h 51 min
Bit rate : 0 b/s
Count of elements : 12
Stream size : 586 Bytes (0%)
Title : Forced
Language : Ukrainian
Default : Yes
Forced : No

Text #2
ID : 7
Format : UTF-8
Codec ID : S_TEXT/UTF8
Codec ID/Info : UTF-8 Plain Text
Duration : 1 h 53 min
Bit rate : 37 b/s
Count of elements : 693
Stream size : 31.0 KiB (0%)
Title : Full
Language : Ukrainian
Default : No
Forced : No

Text #3
ID : 8
Format : UTF-8
Codec ID : S_TEXT/UTF8
Codec ID/Info : UTF-8 Plain Text
Duration : 1 h 46 min
Bit rate : 24 b/s
Count of elements : 695
Stream size : 19.3 KiB (0%)
Title : Full
Language : English
Default : No
Forced : No
Скріншоти
Джерело:
Особиста оцінка: 6 - третій сорт - не брак
Увага! Перед завантаженням переконайтесь, що ваш пристрій відтворення (та/або ПЗ) підтримує H.265 (HEVC)


Золотий реліз (завантажене не впливає на рейтинг)
 Трекер:    Зареєстрований   

Завантажити / скачати фільм українською



відео для новачків



 Зареєстрований:   2019-03-02 18:59
 Розмір:   48.54 GB 
 Оцінка фільму:   8.4/10 (Голосів: 11)
   
antik_2008 
Релізер і модератор відео


З нами з: 20.10.08
Востаннє: 20.04.19
Повідомлень: 1949

2019-03-02 18:59  
Реліз оновлено. Додав звук з ліцензії 
antik_2008 
Релізер і модератор відео


З нами з: 20.10.08
Востаннє: 20.04.19
Повідомлень: 1949

2019-03-05 18:51  
6/10

На один раз

Ваш часовий пояс: GMT + 2 Години

Нова тема   Відповісти