Дівчина у павутинні / The Girl in the Spider's Web (2018) Remux 1080p Ukr/Eng | Sub Ukr/Eng

Нові коментарі

Нова тема   Відповісти
Автор Повідомлення
antik_2008 
Релізер і модератор відео


З нами з: 20.10.08
Востаннє: 20.04.19
Повідомлень: 1949

2019-02-04 02:35  
Дівчина у павутинні / The Girl in the Spider's Web (2018) Remux Ukr/Eng | Sub Ukr/Eng

Дівчина у павутинні / The Girl in the Spider's Web (2018) Remux 1080p Ukr/Eng | Sub Ukr/Eng


Жанр: бойовик, драма, кримінальний, трилер, детектив
Країна: США, Велика Британія, Канада, Німеччина, Швеція





Кінокомпанія: Metro-Goldwyn-Mayer, Sony Pictures Entertainment
Режисер: Федеріко Альварес
Актори: Клер Фой, Сверрір Гуднасон, Бо Гадсдон, Лейкіт Стенфілд, Сільвія Хукс, Стівен Мерчант, Клас Банг, Сінневе Макоді Лунд, Мікаел Персбрандт, Кемерон Бріттон

Сюжет:
У світі сучасних технологій дуже цінні ті люди, які вміють зламувати різні системи. Це може принести величезні фінанси та вплив. Хакер Лісбет Саландер якраз є однією з таких людей. Її просить про захист якийсь професор Болдер, який хоче захистити роботу всього свого життя. Крім того, бідоласі також допоможе відомий журналіст Мікаель Блумквіст, який працює в журналі "Міленіум". Ніхто навіть не підозрював у яку небезпеку потраплять всі ці герої. Їм будуть загрожувати дуже розумні кіберзлочинці "павуки". Їх мета – тероризувати Стокгольм і всю Швецію, зокрема Блумквиста та Саландер. Останні ж будуть робити все можливе, щоб цього не сталося.


Тривалість: 01:55:25
Якість: Remux 1080p
Відео:
кодек:
розмір кадру: 1920x1080
бітрейт: 24,9 Мб/с

Аудіо # 1:
мова: українська
переклад: професійний дубльований | студія LeDoyen
кодек: 5.1
бітрейт: 640 кб/с

Аудіо # 2:
мова: українська
переклад: професійний дубльований | студія LeDoyen
кодек: 2.0
бітрейт: 192 кб/с

Аудіо # 3:
мова: англійська
переклад: оригінал
кодек: 5.1
бітрейт: 640 кб/с

Аудіо # 4:
мова: англійська
переклад: оригінал
кодек: -HD MA 5.1
бітрейт: 2266 кб/с

Субтитри (Forced, Full):
мова: українська
тип: програмні (м'які)
формат: *.srt

Субтитри:
мова: англійська
тип: програмні (м'які)
формат: *.srt
Info
General
Unique ID : 149843072286105849831661244775959844926 (0x70BAB9DA50C0A44E7AD62EA4B3E7583E)
Complete name : D:\Гуртом\The Girl in the Spider's Web (2018) [UKR_ENG] Remux [ViDeO_Hurtom].
Format :
Format version : Version 4
File size : 23.1 GiB
Duration : 1 h 55 min
Overall bit rate mode : Variable
Overall bit rate : 28.6 Mb/s
Movie name : The Girl in the Spider's Web (2018) [UKR_ENG] Remux [ViDeO_Hurtom]
Encoded date : UTC 2019-03-02 15:01:06
Writing application : v30.1.0 ('Forever And More') 64-bit
Writing library : libebml v1.3.6 + v1.4.9

Video
ID : 1
Format : AVC
Format/Info : Advanced Video Codec
Format profile : [email protected]
Format settings : CABAC / 2 Ref Frames
Format settings, CABAC : Yes
Format settings, RefFrames : 2 frames
Format settings, GOP : M=1, N=10
Codec ID : V_MPEG4/ISO/AVC
Duration : 1 h 55 min
Bit rate mode : Variable
Bit rate : 24.9 Mb/s
Width : 1 920 pixels
Height : 1 080 pixels
Display aspect ratio : 16:9
Frame rate mode : Constant
Frame rate : 23.976 (24000/1001) FPS
Color space : YUV
Chroma subsampling : 4:2:0
Bit depth : 8 bits
Scan type : Progressive
Bits/(Pixel*Frame) : 0.500
Stream size : 20.1 GiB (87%)
Language : English
Default : Yes
Forced : No

Audio #1
ID : 2
Format : AC-3
Format/Info : Audio Coding 3
Commercial name : Dolby Digital
Codec ID : A_AC3
Duration : 1 h 55 min
Bit rate mode : Constant
Bit rate : 640 kb/s
Channel(s) : 6 channels
Channel layout : L R C LFE Ls Rs
Sampling rate : 48.0 kHz
Frame rate : 31.250 FPS (1536 SPF)
Bit depth : 16 bits
Compression mode : Lossy
Stream size : 528 MiB (2%)
Title : , 6 ch, 640 Кбт/с
Language : Ukrainian
Service kind : Complete Main
Default : Yes
Forced : No

Audio #2
ID : 3
Format : AC-3
Format/Info : Audio Coding 3
Commercial name : Dolby Digital
Codec ID : A_AC3
Duration : 1 h 55 min
Bit rate mode : Constant
Bit rate : 192 kb/s
Channel(s) : 2 channels
Channel layout : L R
Sampling rate : 48.0 kHz
Frame rate : 31.250 FPS (1536 SPF)
Bit depth : 16 bits
Compression mode : Lossy
Stream size : 159 MiB (1%)
Title : , 2 ch, 192 Кбит/с
Language : Ukrainian
Service kind : Complete Main
Default : No
Forced : No

Audio #3
ID : 4
Format : AC-3
Format/Info : Audio Coding 3
Commercial name : Dolby Digital
Codec ID : A_AC3
Duration : 1 h 55 min
Bit rate mode : Constant
Bit rate : 640 kb/s
Channel(s) : 6 channels
Channel layout : L R C LFE Ls Rs
Sampling rate : 48.0 kHz
Frame rate : 31.250 FPS (1536 SPF)
Bit depth : 16 bits
Compression mode : Lossy
Stream size : 528 MiB (2%)
Title : , 6 ch, 640 Кбт/с
Language : English
Service kind : Complete Main
Default : No
Forced : No

Audio #4
ID : 5
Format : XLL
Format/Info : Digital Theater Systems
Commercial name : -HD Master Audio
Codec ID : A_DTS
Duration : 1 h 55 min
Bit rate mode : Variable
Bit rate : 2 266 kb/s
Channel(s) : 6 channels
Channel layout : C L R Ls Rs LFE
Sampling rate : 48.0 kHz
Frame rate : 93.750 FPS (512 SPF)
Bit depth : 16 bits
Compression mode : Lossless
Stream size : 1.83 GiB (8%)
Title : -HD MA, 6 ch, 2266 Кбт/с
Language : English
Default : No
Forced : No

Text #1
ID : 6
Format : UTF-8
Codec ID : S_TEXT/UTF8
Codec ID/Info : UTF-8 Plain Text
Duration : 1 h 51 min
Bit rate : 0 b/s
Count of elements : 12
Stream size : 586 Bytes (0%)
Title : Forced
Language : Ukrainian
Default : Yes
Forced : No

Text #2
ID : 7
Format : UTF-8
Codec ID : S_TEXT/UTF8
Codec ID/Info : UTF-8 Plain Text
Duration : 1 h 53 min
Bit rate : 37 b/s
Count of elements : 693
Stream size : 31.0 KiB (0%)
Title : Full
Language : Ukrainian
Default : No
Forced : No

Text #3
ID : 8
Format : UTF-8
Codec ID : S_TEXT/UTF8
Codec ID/Info : UTF-8 Plain Text
Duration : 1 h 46 min
Bit rate : 24 b/s
Count of elements : 695
Stream size : 19.3 KiB (0%)
Title : Full
Language : English
Default : No
Forced : No
Скріншоти






Джерело:
Особиста оцінка: 6 - третій сорт - не брак


Золотий реліз (завантажене не впливає на рейтинг)
 Трекер:    Зареєстрований   

Завантажити / скачати фільм українською



відео для новачків



 Зареєстрований:   2019-03-02 18:24
 Розмір:   23.07 GB 
 Оцінка фільму:   9.8/10 (Голосів: 9)
   
antik_2008 
Релізер і модератор відео


З нами з: 20.10.08
Востаннє: 20.04.19
Повідомлень: 1949

2019-03-02 18:24  
Реліз оновлено. Додав звук з ліцензії 
Ваш часовий пояс: GMT + 2 Години

Нова тема   Відповісти