Дівчина у павутинні / The Girl in the Spider's Web (2018) Ukr/Eng | Sub Ukr/Eng

Нові коментарі

Нова тема   Відповісти
Автор Повідомлення
Anonymous 







2019-02-04 02:03  
Дівчина у павутинні / The Girl in the Spider's Web (2018) Ukr/Eng | Sub Ukr/Eng

Дівчина у павутинні / The Girl in the Spider's Web (2018) Ukr/Eng | Sub Ukr/Eng
Альтернативні постери:

Дівчина у павутинні / The Girl in the Spider's Web (2018) Ukr/Eng | Sub Ukr/Eng

Дівчина у павутинні / The Girl in the Spider's Web (2018) Ukr/Eng | Sub Ukr/Eng

Дівчина у павутинні / The Girl in the Spider's Web (2018) Ukr/Eng | Sub Ukr/Eng


Жанр: бойовик, драма, кримінальний, трилер, детектив
Країна: Велика Британія, Німеччина, Швеція, Канада, США



Кінокомпанія: Metro-Goldwyn-Mayer (MGM), New Regency Pictures, Pascal Pictures, Scott Rudin Productions, Sony Pictures Entertainment, The Cantillon Company, Yellow Bird
Режисер: Федеріко Альварес / Fede Alvarez
Актори: Клер Фой / Claire Foy, Сверрір Гуднасон / Sverrir Gudnason, Бо Гадсдон / Beau Gadsdon, Лейкіт Стенфілд / Lakeith Stanfield, Сільвія Хукс / Sylvia Hoeks, Стівен Мерчант / Stephen Merchant, Клас Банг / Claes Bang, Сінневе Макоді Лунд / Synnøve Macody Lund та інші

Сюжет:
Дівчина з татуюванням дракона, хакерка Лісбет Саландер, продовжує розслідування. Раптова смерть видатного розробника штучного інтелекту виводить Лісбет на слід її найнебезпечнішого ворога, який, мов павук, сплів для неї пастку… Разом зі своїм давнім напарником, детективом Мікаелем Блумквістом, дівчина опиняється в епіцентрі глобальної змови кіберзлочинців і корумпованих чиновників.
Офіційні українські трейлери:




Рейтинг MPAA: R - особам до 17 років обов'язкова присутність батьків або дорослого опікуна
Вікова категорія: 16+

Тривалість: 01:55:25
Якість:

Відео:
кодек:
розмір кадру: 720 х 304
бітрейт: 1914 кб/с

Аудіо # 1:
мова: українська
переклад: професійний дубльований | студія LeDoyen
кодек: 5.1
бітрейт: 448 кб/с

Аудіо # 2:
мова: англійська
переклад: оригінал
кодек: AC 5.1
бітрейт: 448 кб/с

Субтитри # 1-2:
мова: українська (форсовані, повні)
тип: програмні (м'які)
формат: *.srt

Субтитри # 3:
мова: англійська
тип: програмні (м'які)
формат: *.srt
Info
Код:

General
Complete name               : The Girl in the Spider's Web (2018) [Ukr,Eng] [Hurtom].avi
Format                      : AVI
Format/Info                 : Audio Video Interleave
Format profile              : OpenDML
File size                   : 2.28 GiB
Duration                    : 1 h 55 min
Overall bit rate            : 2 827 kb/s
Movie name                  : Дівчина у павутинні / The Girl in the Spider's Web (2018) [Ukr,Eng] [Hurtom]
Writing application         : VirtualDubModUkr 1.5.10.2 (build 2542/release)
Writing library             : VirtualDubMod build 2542/release

Video
ID                          : 0
Format                      : MPEG-4 Visual
Format profile              : Advanced [email protected]
Format settings             : BVOP1 / Custom Matrix
Format settings, BVOP       : 1
Format settings, QPel       : No
Format settings, GMC        : No warppoints
Format settings, Matrix     : Custom
Codec ID                    :
Codec ID/Hint               :
Duration                    : 1 h 55 min
Bit rate                    : 1 914 kb/s
Width                       : 720 pixels
Height                      : 304 pixels
Display aspect ratio        : 2.35:1
Frame rate                  : 23.976 (24000/1001) FPS
Color space                 : YUV
Chroma subsampling          : 4:2:0
Bit depth                   : 8 bits
Scan type                   : Progressive
Compression mode            : Lossy
Bits/(Pixel*Frame)          : 0.365
Stream size                 : 1.54 GiB (68%)
Writing library             : 73

Audio #1
ID                          : 1
Format                      : AC-3
Format/Info                 : Audio Coding 3
Commercial name             : Dolby Digital
Codec ID                    : 2000
Duration                    : 1 h 55 min
Bit rate mode               : Constant
Bit rate                    : 448 kb/s
Channel(s)                  : 6 channels
Channel layout              : L R C LFE Ls Rs
Sampling rate               : 48.0 kHz
Frame rate                  : 31.250 FPS (1536 SPF)
Bit depth                   : 16 bits
Compression mode            : Lossy
Stream size                 : 370 MiB (16%)
Alignment                   : Split accross interleaves
Interleave, duration        : 42  ms (1.00 video frame)
Interleave, preload duratio : 500  ms
Title                       : UKR DUB [LeDoyen, Blu-ray]
Service kind                : Complete Main

Audio #2
ID                          : 2
Format                      : AC-3
Format/Info                 : Audio Coding 3
Commercial name             : Dolby Digital
Codec ID                    : 2000
Duration                    : 1 h 55 min
Bit rate mode               : Constant
Bit rate                    : 448 kb/s
Channel(s)                  : 6 channels
Channel layout              : L R C LFE Ls Rs
Sampling rate               : 48.0 kHz
Frame rate                  : 31.250 FPS (1536 SPF)
Bit depth                   : 16 bits
Compression mode            : Lossy
Stream size                 : 370 MiB (16%)
Alignment                   : Split accross interleaves
Interleave, duration        : 42  ms (1.00 video frame)
Interleave, preload duratio : 500  ms
Service kind                : Complete Main
Скріншоти
Джерело: &

02.03.2019 реліз оновлено - додано українську доріжку з Blu-ray


 Трекер:    Зареєстрований   

Завантажити / скачати фільм українською



відео для новачків



 Зареєстрований:   2019-03-02 16:40
 Розмір:   2.28 GB 
 Оцінка фільму:   9.8/10 (Голосів: 17)
 ЗАЛИШАЙТЕСЬ ЯКОМОГА ДОВШЕ НА РОЗДАЧІ! ЗАВАНТАЖИВ САМ - ДАЙ ЗАВАНТАЖИТИ ІНШИМ!
   
Anonymous 







2019-03-02 16:45  
Реліз оновлено - додано українську доріжку з Blu-ray.
Ваш часовий пояс: GMT + 2 Години

Нова тема   Відповісти