Вдови / Widows (2018) UHD Remux 4K 2160p HDR H.265 Ukr/Eng | Ukr/Eng

Нові коментарі

Нова тема   Відповісти
Автор Повідомлення
antik_2008 
Релізер і модератор відео


З нами з: 20.10.08
Востаннє: 19.04.19
Повідомлень: 1947

2019-02-03 23:20  
Вдови / Widows (2018) UHD Remux 4K 2160p HDR H.265 Ukr/Eng | Ukr/Eng

Вдови / Widows (2018) UHD Remux 4K 2160p HDR H.265 Ukr/Eng | Ukr/Eng


Жанр: драма, кримінальний, трилер
Країна: США, Велика Британія





Кінокомпанія: Film4, 20th Century Fox, New Regency Pictures
Режисер: Стів МакКуін
Актори: Віола Девіс, Мішель Родрігес, Елізабет Дебікі, Синтія Еріво, Колін Фаррелл, Брайан Тайрі Генрі, Деніел Калуя, Ліам Нісон, Керрі Кун, Роберт Дювалл

Сюжет:
У Чикаго настали дуже смутні часи, де кожен виживає як може. Деякі навіть роблять цей такий небезпечний крок у злочинний світ. Небезпечний він ще й тому, що назад вже нічого повернути буде неможливо. Після одного невдалого пограбування чотири жінки залишилися вдовами – їхніх чоловіків убили на справі. У цих жінок не залишилося нічого – тільки борги їхніх чоловіків. Це ж їх і об'єднує. У цьому світі, повному злочинності, бідності і корупції, ці жінки розуміють, що не можна бути слабкими, що треба диктувати свої правила. Вони вирішили закінчити те, що почали їхні чоловіки. І вони знайдуть тих, хто їх підставив.


Тривалість: 02:09:34
Якість: 4K UltraHD Remux 2160p
Відео:
кодек: H.265 (HEVC)
розмір кадру: 3840x2160
бітрейт: ~47800 кб/с
бітова глибина: 10 біт
кольоровий простір: BT.2020 (HDR)

Аудіо # 1:
мова: українська
переклад: професійний дубльований
кодек: 5.1
бітрейт: 448 кб/с
примітка: є діалоги іспанською без дубляжу, на них є форсовані субтитри

Аудіо # 2:
мова: англійська
переклад: оригінал
кодек: 5.1
бітрейт: 640 кб/с

Аудіо # 3:
мова: англійська
переклад: оригінал
кодек: TrueHD 7.1
бітрейт: 4218 кб/с

Джерело озвучення:


Субтитри (Forced, Full):
мова: українська
тип: програмні (м'які)
формат: *.srt

Субтитри (SDH, Full):
мова: англійська
тип: програмні (м'які)
формат: *.srt
Info
General
Complete name : Widows (2018) Remux 4K 2160p (HEVC) HDR H.265 [Ukr_Eng] [ViDeO_Hurtom].
Format :
Format version : Version 4
File size : 48.1 GiB
Duration : 2 h 9 min
Overall bit rate mode : Variable
Overall bit rate : 53.2 Mb/s
Movie name : Widows (2018) Remux 4K 2160p (HEVC) HDR H.265 [Ukr_Eng] [ViDeO_Hurtom]
Encoded date : UTC 2019-02-09 20:29:16
Writing application : v30.1.0 ('Forever And More') 64-bit
Writing library : libebml v1.3.6 + v1.4.9

Video
ID : 1
Format : HEVC
Format/Info : High Efficiency Video Coding
Commercial name : HDR10
Format profile : Main [email protected]@High
Codec ID : V_MPEGH/ISO/HEVC
Duration : 2 h 9 min
Bit rate : 47.8 Mb/s
Width : 3 840 pixels
Height : 2 160 pixels
Display aspect ratio : 16:9
Frame rate mode : Constant
Frame rate : 23.976 (24000/1001) FPS
Color space : YUV
Chroma subsampling : 4:2:0 (Type 2)
Bit depth : 10 bits
Bits/(Pixel*Frame) : 0.240
Stream size : 43.3 GiB (90%)
Writing library : ATEME Titan File 3.9.0 (4.9.0.0)
Language : English
Default : Yes
Forced : No
Color range : Limited
Color primaries : BT.2020
Transfer characteristics : PQ
Matrix coefficients : BT.2020 non-constant
Mastering display color primaries : Display P3
Mastering display luminance : min: 0.0050 cd/m2, max: 1000 cd/m2

Audio #1
ID : 2
Format : AC-3
Format/Info : Audio Coding 3
Commercial name : Dolby Digital
Codec ID : A_AC3
Duration : 2 h 9 min
Bit rate mode : Constant
Bit rate : 448 kb/s
Channel(s) : 6 channels
Channel layout : L R C LFE Ls Rs
Sampling rate : 48.0 kHz
Frame rate : 31.250 FPS (1536 SPF)
Bit depth : 16 bits
Compression mode : Lossy
Delay relative to video : -1 ms
Stream size : 415 MiB (1%)
Title : , 6 ch, 448 Кбт/с
Language : Ukrainian
Service kind : Complete Main
Default : Yes
Forced : No

Audio #2
ID : 3
Format : AC-3
Format/Info : Audio Coding 3
Commercial name : Dolby Digital
Codec ID : A_AC3
Duration : 2 h 9 min
Bit rate mode : Constant
Bit rate : 640 kb/s
Channel(s) : 6 channels
Channel layout : L R C LFE Ls Rs
Sampling rate : 48.0 kHz
Frame rate : 31.250 FPS (1536 SPF)
Bit depth : 16 bits
Compression mode : Lossy
Delay relative to video : 31 ms
Stream size : 593 MiB (1%)
Title : , 6 ch, 640 Кбт/с
Language : English
Service kind : Complete Main
Default : No
Forced : No

Audio #3
ID : 4
Format : MLP FBA 16-ch
Format/Info : Meridian Lossless Packing FBA with 16-channel presentation
Commercial name : Dolby TrueHD with Dolby Atmos
Codec ID : A_TRUEHD
Duration : 2 h 9 min
Bit rate mode : Variable
Bit rate : 4 218 kb/s
Maximum bit rate : 7 818 kb/s
Channel(s) : 8 channels
Channel layout : L R C LFE Ls Rs Lb Rb
Sampling rate : 48.0 kHz
Frame rate : 1 200.000 FPS (40 SPF)
Compression mode : Lossless
Delay relative to video : 32 ms
Stream size : 3.82 GiB (8%)
Title : TrueHD, 8 ch, 4218 Кбит/с
Language : English
Default : No
Forced : No
Number of dynamic objects : 13
Bed channel count : 1 channel
Bed channel configuration : LFE

Text #1
ID : 5
Format : UTF-8
Codec ID : S_TEXT/UTF8
Codec ID/Info : UTF-8 Plain Text
Duration : 2 h 8 min
Bit rate : 85 b/s
Count of elements : 1626
Stream size : 80.3 KiB (0%)
Title : Full
Language : Ukrainian
Default : No
Forced : No

Text #2
ID : 6
Format : UTF-8
Codec ID : S_TEXT/UTF8
Codec ID/Info : UTF-8 Plain Text
Duration : 2 h 3 min
Bit rate : 1 b/s
Count of elements : 26
Stream size : 1.03 KiB (0%)
Title : Forced
Language : Ukrainian
Default : Yes
Forced : No

Text #3
ID : 7
Format : UTF-8
Codec ID : S_TEXT/UTF8
Codec ID/Info : UTF-8 Plain Text
Duration : 2 h 5 min
Bit rate : 63 b/s
Count of elements : 1895
Stream size : 58.7 KiB (0%)
Title : Full
Language : English
Default : No
Forced : No

Text #4
ID : 8
Format : UTF-8
Codec ID : S_TEXT/UTF8
Codec ID/Info : UTF-8 Plain Text
Duration : 2 h 5 min
Bit rate : 71 b/s
Count of elements : 2115
Stream size : 65.8 KiB (0%)
Title : SDH
Language : English
Default : No
Forced : No
Скріншоти
Джерело:
Особиста оцінка: 8 - мені сподобалося
Увага! Перед завантаженням переконайтесь, що ваш пристрій відтворення (та/або ПЗ) підтримує H.265 (HEVC)


Золотий реліз (завантажене не впливає на рейтинг)
 Трекер:    Зареєстрований   

Завантажити / скачати фільм українською



відео для новачків



 Зареєстрований:   2019-02-10 12:32
 Розмір:   48.14 GB 
 Оцінка фільму:   8.9/10 (Голосів: 10)
   
Інші релізи
   Вдови / Widows (2018) 1080p H.265 Ukr/Eng | Sub Ukr/Eng antik_2008  6 / 0   6.51 GB   2019-02-09 22:27 
   Вдови / Widows (2018) Ukr/Eng | Sub Ukr/Eng antik_2008  4 / 0   2.59 GB   2019-02-09 21:11 
   Вдови / Widows (2018) Remux 1080p Ukr/Eng | Sub Ukr/Eng staf777  4 / 0   28.93 GB   2019-02-09 19:54 
   Вдови / Widows (2018) 1080p Ukr/Eng | Sub Ukr/Eng/Spa/Fre igor911  6 / 0   16.87 GB   2019-02-09 18:32 
   Вдови / Widows (2018) uafilm.tv  10 / 0   2.18 GB   2019-02-09 18:27 
   Вдови / Widows (2018) 720p Ukr/Eng | Sub Ukr/Eng 11FrYkT  8 / 0   5.07 GB   2019-02-09 12:46 
   Вдови / Widows (2018) AVC Ukr/Eng | Sub Ukr/Eng 11FrYkT  5 / 0   2.47 GB   2019-02-09 12:27 
bot 
робот


З нами з: 30.09.07
Востаннє: 26.05.05
Повідомлень: 21205

2019-02-06 22:14  
Тему перенесено з Анонси релізів до форуму Фільми в HD


antik_2008

antik_2008 
Релізер і модератор відео


З нами з: 20.10.08
Востаннє: 19.04.19
Повідомлень: 1947

2019-02-10 12:33  
Реліз оновлено. Додав звук з ліцензії 
Ваш часовий пояс: GMT + 2 Години

Нова тема   Відповісти