Богемна рапсодія / Bohemian Rhapsody (2018) UHD Remux 4K 2160p HDR H.265 Ukr/Eng | Sub Ukr/Eng

Нові коментарі

Нова тема   Відповісти
Автор Повідомлення
antik_2008 
Релізер і модератор відео


З нами з: 20.10.08
Востаннє: 20.04.19
Повідомлень: 1949

2019-02-03 03:01  
Богемна рапсодія / Bohemian Rhapsody (2018) UHD Remux 4K 2160p HDR H.265 Ukr/Eng | Sub Ukr/Eng

Богемна рапсодія / Bohemian Rhapsody (2018) UHD Remux 4K 2160p HDR H.265 Ukr/Eng | Sub Ukr/Eng


Жанр: біографічний, драма, музичний
Країна: Велика Британія, США





Кінокомпанія: GK Films, New Regency Pictures, Queen Films Ltd.
Режисер: Брайан Сінгер
Актори: Рамі Малек, Люсі Бойнтон, Гвілім Лі, Бен Харді, Джозеф Маццелло, Ейдан Джиллен, Аллен Ліч, Том Холландер, Майк Майєрс, Аарон МакКаскер

Сюжет:
«Богемна рапсодія» — це фільм-посвята ансамблю Queen, їхній музиці та видатному солісту Фредді Мерк'юрі, який кинув виклик стереотипам та відкинув умовності, аби стати одним з найулюбленіших артистів на планеті. Фільм простежує карколомний злет Queen завдяки культовим пісням та революційному звучанню, майже розпад групи, коли спосіб життя Мерк'юрі вийшов з-під контролю, та їхнє тріумфальне возз'єднання напередодні благодійного концерту Live Aid, де група на чолі зі смертельно хворим Мерк'юрі продемонструвала один з найвеличніших виступів в історії рок-музики.


Тривалість: 02:14:37
Якість: 4K UltraHD Remux 2160p
Відео:
кодек: H.265 (HEVC)
розмір кадру: 3840x2160
бітрейт: 37,2 Мб/с
бітова глибина: 10 біт
кольоровий простір: BT.2020 (HDR)

Аудіо # 1:
мова: українська
переклад: професійний дубльований
кодек: 5.1
бітрейт: 448 кб/с

Аудіо # 2:
мова: англійська
переклад: оригінал
кодек: 5.1
бітрейт: 640 кб/с

Аудіо # 3:
мова: англійська
переклад: оригінал
кодек: TrueHD 7.1
бітрейт: 4618 кб/с

Джерело озвучення:


Субтитри (Forced, Full):
мова: українська
тип: програмні (м'які)
формат: *.srt

Субтитри (SDH, SDH Colored):
мова: англійська
тип: програмні (м'які)
формат: *.srt
Info
Код:
General
Complete name                            : \Bohemian Rhapsody (2018) Remux 4K 2160p HDR H.265 [ukr_eng] [ViDeO_Hurtom].
Format                                   :
Format version                           : Version 4
File size                                : 40.4 GiB
Duration                                 : 2 h 14 min
Overall bit rate mode                    : Variable
Overall bit rate                         : 43.0 Mb/s
Movie name                               : Bohemian Rhapsody (2018) Remux 4K 2160p HDR H.265 [ukr_eng] [ViDeO_Hurtom]
Encoded date                             : UTC 2019-02-08 20:45:56
Writing application                      : v30.1.0 ('Forever And More') 64-bit
Writing library                          : libebml v1.3.6 + v1.4.9

Video
ID                                       : 1
Format                                   : HEVC
Format/Info                              : High Efficiency Video Coding
Commercial name                          : HDR10
Format profile                           : Main [email protected]@High
Codec ID                                 : V_MPEGH/ISO/HEVC
Duration                                 : 2 h 14 min
Bit rate                                 : 37.2 Mb/s
Width                                    : 3 840 pixels
Height                                   : 2 160 pixels
Display aspect ratio                     : 16:9
Frame rate mode                          : Constant
Frame rate                               : 23.976 (24000/1001) FPS
Color space                              : YUV
Chroma subsampling                       : 4:2:0 (Type 2)
Bit depth                                : 10 bits
Bits/(Pixel*Frame)                       : 0.187
Stream size                              : 35.0 GiB (87%)
Language                                 : English
Default                                  : Yes
Forced                                   : No
Color range                              : Limited
Color primaries                          : BT.2020
Transfer characteristics                 : PQ
Matrix coefficients                      : BT.2020 non-constant
Mastering display color primaries        : Display P3
Mastering display luminance              : min: 0.0050 cd/m2, max: 1000 cd/m2

Audio #1
ID                                       : 2
Format                                   : AC-3
Format/Info                              : Audio Coding 3
Commercial name                          : Dolby Digital
Codec ID                                 : A_AC3
Duration                                 : 2 h 14 min
Bit rate mode                            : Constant
Bit rate                                 : 448 kb/s
Channel(s)                               : 6 channels
Channel layout                           : L R C LFE Ls Rs
Sampling rate                            : 48.0 kHz
Frame rate                               : 31.250 FPS (1536 SPF)
Bit depth                                : 16 bits
Compression mode                         : Lossy
Stream size                              : 431 MiB (1%)
Title                                    : , 6 ch, 448 Кбт/с
Language                                 : Ukrainian
Service kind                             : Complete Main
Default                                  : Yes
Forced                                   : No

Audio #2
ID                                       : 3
Format                                   : AC-3
Format/Info                              : Audio Coding 3
Commercial name                          : Dolby Digital
Codec ID                                 : A_AC3
Duration                                 : 2 h 14 min
Bit rate mode                            : Constant
Bit rate                                 : 640 kb/s
Channel(s)                               : 6 channels
Channel layout                           : L R C LFE Ls Rs
Sampling rate                            : 48.0 kHz
Frame rate                               : 31.250 FPS (1536 SPF)
Bit depth                                : 16 bits
Compression mode                         : Lossy
Stream size                              : 616 MiB (1%)
Title                                    : , 6 ch, 640 Кбт/с
Language                                 : English
Service kind                             : Complete Main
Default                                  : No
Forced                                   : No

Audio #3
ID                                       : 4
Format                                   : MLP FBA 16-ch
Format/Info                              : Meridian Lossless Packing FBA with 16-channel presentation
Commercial name                          : Dolby TrueHD with Dolby Atmos
Codec ID                                 : A_TRUEHD
Duration                                 : 2 h 14 min
Bit rate mode                            : Variable
Bit rate                                 : 4 611 kb/s
Maximum bit rate                         : 8 277 kb/s
Channel(s)                               : 8 channels
Channel layout                           : L R C LFE Ls Rs Lb Rb
Sampling rate                            : 48.0 kHz
Frame rate                               : 1 200.000 FPS (40 SPF)
Compression mode                         : Lossless
Stream size                              : 4.34 GiB (11%)
Title                                    : TrueHD, 8 ch, 4618 Кбт/с
Language                                 : English
Default                                  : No
Forced                                   : No
Number of dynamic objects                : 13
Bed channel count                        : 1 channel
Bed channel configuration                : LFE

Text #1
ID                                       : 5
Format                                   : UTF-8
Codec ID                                 : S_TEXT/UTF8
Codec ID/Info                            : UTF-8 Plain Text
Duration                                 : 2 h 13 min
Bit rate                                 : 3 b/s
Count of elements                        : 71
Stream size                              : 3.87 KiB (0%)
Title                                    : Forced
Language                                 : Ukrainian
Default                                  : Yes
Forced                                   : No

Text #2
ID                                       : 6
Format                                   : UTF-8
Codec ID                                 : S_TEXT/UTF8
Codec ID/Info                            : UTF-8 Plain Text
Duration                                 : 2 h 13 min
Bit rate                                 : 77 b/s
Count of elements                        : 1753
Stream size                              : 75.4 KiB (0%)
Title                                    : Full
Language                                 : Ukrainian
Default                                  : No
Forced                                   : No

Text #3
ID                                       : 7
Format                                   : UTF-8
Codec ID                                 : S_TEXT/UTF8
Codec ID/Info                            : UTF-8 Plain Text
Duration                                 : 2 h 11 min
Bit rate                                 : 68 b/s
Count of elements                        : 2268
Stream size                              : 65.6 KiB (0%)
Title                                    : SDH
Language                                 : English
Default                                  : No
Forced                                   : No

Text #4
ID                                       : 8
Format                                   : UTF-8
Codec ID                                 : S_TEXT/UTF8
Codec ID/Info                            : UTF-8 Plain Text
Duration                                 : 2 h 11 min
Bit rate                                 : 92 b/s
Count of elements                        : 2269
Stream size                              : 88.9 KiB (0%)
Title                                    : SDH Colored
Language                                 : English
Default                                  : No
Forced                                   : No
Скріншоти

Джерело: &
Особиста оцінка: 0 - не дивився
Увага! Перед завантаженням переконайтесь, що ваш пристрій відтворення (та/або ПЗ) підтримує H.265 (HEVC)


Золотий реліз (завантажене не впливає на рейтинг)
 Трекер:    Зареєстрований   

Завантажити / скачати фільм українською



відео для новачків



 Зареєстрований:   2019-02-14 16:39
 Розмір:   40.41 GB 
 Оцінка фільму:   8.8/10 (Голосів: 20)
   
antik_2008 
Релізер і модератор відео


З нами з: 20.10.08
Востаннє: 20.04.19
Повідомлень: 1949

2019-02-14 16:39  
Реліз оновлено. Додав звук з ліцензії 
Ваш часовий пояс: GMT + 2 Години

Нова тема   Відповісти