Близько / Close (2019) AVC Ukr/Eng | Sub Eng/Multi

Нові коментарі

Нова тема   Відповісти
Автор Повідомлення
Anonymous 







2019-02-02 23:27  
Близько / Close (2019) AVC Ukr/Eng | Sub Eng/Multi

Близько / Close (2019) AVC Ukr/Eng | Sub Eng/Multi


Жанр: екшн, трилер
Країна: Велика Британія, США



Кінокомпанія: Jewson Film, Whitaker Media
Режисер: Вікі Джевісон
Актори: Нумі Рапас, Індіра Варма, Софі Нелісс, Овен Мекен, Чарлі Палмер Ротвелл, Акін Газі, Джордж Джорджиу, Крістофер Сіуреф, Олівія Джевісон

Сюжет:
Симпатичний, хоч і дуже простий, середньостатистичний жіночий бойовичок про боротьбу за виживання.

Головна героїня - жінка-експерт на ім’я Сем. Одного разу до неї звертаються колеги з проханням допомогти захистити розпещену дочку і спадкоємицю великої бізнес-імперії, якій дісталися колосальні статки після смерті батька. Справа в тому, що опинившись ні з чим, ображена вдова і мачуха молодої дівчини вирішує вбити небогу та заволодіти статками покійного чоловіка. Через кілька днів, під час перебування в іншій країні, на молоду дівчину починається справжнє полювання, і тепер Сем необхідно вжити екстрених заходів для захисту та евакуації охоронюваного об'єкта…


Тривалість: 01:34:38
Якість: AVC
Відео:
кодек:
розмір кадру: 720 х 304
бітрейт: 1100 кб/с

Аудіо # 1:
мова: українська
переклад: багатоголосий закадровий
кодек: 5.1
бітрейт: 384 кб/с

Аудіо # 2:
мова: англійська
переклад: оригінал
кодек: 5.1
бітрейт: 640 кб/с

Джерело озвучення:
DniproFilm

Субтитри:
мова: англійська, іспанська, французька, італійська, португальська, португальська (бразильська), турецька, шведська, данська, фінська, нідерландська, норвезька, грецька, арабська, румунська, тайська, корейська, китайська (спрощ.), китайська (трад.), японська
тип: програмні (м'які)
формат: *.srt
Info
General
Unique ID : 335553916270985408482912439216829652572 (0xFC7155623D6111F4C7CE6B82488C5E5C)
Complete name : Close (2019) AVC [UKR.ENG, sub ENG.MULTI] [Hurtom].
Format :
Format version : Version 4
File size : 1.40 GiB
Duration : 1 h 34 min
Overall bit rate : 2 114 kb/s
Movie name : Близько (2019)
Encoded date : UTC 2019-02-02 20:56:58
Writing application : v30.1.0 ('Forever And More') 64-bit
Writing library : libebml v1.3.6 + v1.4.9
Cover : Yes
Attachments : cover.jpg

Video
ID : 1
Format : AVC
Format/Info : Advanced Video Codec
Format profile : [email protected]
Format settings : CABAC / 5 Ref Frames
Format settings, CABAC : Yes
Format settings, ReFrames : 5 frames
Codec ID : V_MPEG4/ISO/AVC
Duration : 1 h 34 min
Bit rate : 1 100 kb/s
Width : 720 pixels
Height : 304 pixels
Display aspect ratio : 2.40:1
Original display aspect ratio : 2.40:1
Frame rate mode : Constant
Frame rate : 24.000 FPS
Color space : YUV
Chroma subsampling : 4:2:0
Bit depth : 8 bits
Scan type : Progressive
Bits/(Pixel*Frame) : 0.209
Stream size : 735 MiB (51%)
Writing library : core 148 r2795M aaa9aa8
Encoding settings : cabac=1 / ref=5 / deblock=1:-1:-1 / analyse=0x3:0x113 / me=umh / subme=9 / psy=1 / psy_rd=1.00:0.15 / mixed_ref=1 / me_range=16 / chroma_me=1 / trellis=2 / 8x8dct=1 / cqm=0 / deadzone=21,11 / fast_pskip=1 / chroma_qp_offset=-3 / threads=24 / lookahead_threads=2 / sliced_threads=0 / nr=0 / decimate=1 / interlaced=0 / bluray_compat=0 / constrained_intra=0 / bframes=3 / b_pyramid=2 / b_adapt=2 / b_bias=0 / direct=3 / weightb=1 / open_gop=0 / weightp=2 / keyint=250 / keyint_min=24 / scenecut=40 / intra_refresh=0 / rc_lookahead=50 / rc=abr / mbtree=1 / bitrate=1100 / ratetol=1.0 / qcomp=0.60 / qpmin=0 / qpmax=69 / qpstep=4 / ip_ratio=1.40 / aq=1:1.00
Language : English
Default : Yes
Forced : No

Audio #1
ID : 2
Format : AC-3
Format/Info : Audio Coding 3
Commercial name : Dolby Digital
Codec ID : A_AC3
Duration : 1 h 34 min
Bit rate mode : Constant
Bit rate : 384 kb/s
Channel(s) : 6 channels
Channel layout : L R C LFE Ls Rs
Sampling rate : 48.0 kHz
Frame rate : 31.250 FPS (1536 SPF)
Bit depth : 16 bits
Compression mode : Lossy
Stream size : 260 MiB (18%)
Title : Ukrainian
Language : Ukrainian
Service kind : Complete Main
Default : Yes
Forced : Yes

Audio #2
ID : 3
Format : E-AC-3
Format/Info : Enhanced AC-3
Commercial name : Dolby Digital Plus
Codec ID : A_EAC3
Duration : 1 h 34 min
Bit rate mode : Constant
Bit rate : 640 kb/s
Channel(s) : 6 channels
Channel layout : L R C LFE Ls Rs
Sampling rate : 48.0 kHz
Frame rate : 31.250 FPS (1536 SPF)
Compression mode : Lossy
Stream size : 433 MiB (30%)
Title : English
Language : English
Service kind : Complete Main
Default : No
Forced : No

Text #1
ID : 4
Format : UTF-8
Codec ID : S_TEXT/UTF8
Codec ID/Info : UTF-8 Plain Text
Duration : 32 min 14 s
Bit rate : 2 b/s
Count of elements : 16
Stream size : 563 Bytes (0%)
Title : English [Forced]
Language : English
Default : Yes
Forced : Yes

Text #2
ID : 5
Format : UTF-8
Codec ID : S_TEXT/UTF8
Codec ID/Info : UTF-8 Plain Text
Duration : 1 h 33 min
Bit rate : 48 b/s
Count of elements : 1139
Stream size : 32.9 KiB (0%)
Title : English [SDH]
Language : English
Default : No
Forced : No

Text #3
ID : 6
Format : UTF-8
Codec ID : S_TEXT/UTF8
Codec ID/Info : UTF-8 Plain Text
Duration : 1 h 33 min
Bit rate : 28 b/s
Count of elements : 727
Stream size : 19.3 KiB (0%)
Title : Spanish
Language : Spanish
Default : No
Forced : No

Text #4
ID : 7
Format : UTF-8
Codec ID : S_TEXT/UTF8
Codec ID/Info : UTF-8 Plain Text
Duration : 1 h 30 min
Bit rate : 31 b/s
Count of elements : 721
Stream size : 20.7 KiB (0%)
Title : French
Language : French
Default : No
Forced : No

Text #5
ID : 8
Format : UTF-8
Codec ID : S_TEXT/UTF8
Codec ID/Info : UTF-8 Plain Text
Duration : 1 h 30 min
Bit rate : 29 b/s
Count of elements : 657
Stream size : 19.7 KiB (0%)
Title : Italian
Language : Italian
Default : No
Forced : No

Text #6
ID : 9
Format : UTF-8
Codec ID : S_TEXT/UTF8
Codec ID/Info : UTF-8 Plain Text
Duration : 1 h 30 min
Bit rate : 28 b/s
Count of elements : 731
Stream size : 19.0 KiB (0%)
Title : Portuguese
Language : Portuguese
Default : No
Forced : No

Text #7
ID : 10
Format : UTF-8
Codec ID : S_TEXT/UTF8
Codec ID/Info : UTF-8 Plain Text
Duration : 1 h 30 min
Bit rate : 28 b/s
Count of elements : 729
Stream size : 19.0 KiB (0%)
Title : Brazilian Portuguese
Language : Portuguese
Default : No
Forced : No

Text #8
ID : 11
Format : UTF-8
Codec ID : S_TEXT/UTF8
Codec ID/Info : UTF-8 Plain Text
Duration : 1 h 30 min
Bit rate : 30 b/s
Count of elements : 727
Stream size : 20.5 KiB (0%)
Title : Turkish
Language : Turkish
Default : No
Forced : No

Text #9
ID : 12
Format : UTF-8
Codec ID : S_TEXT/UTF8
Codec ID/Info : UTF-8 Plain Text
Duration : 1 h 30 min
Bit rate : 29 b/s
Count of elements : 704
Stream size : 19.5 KiB (0%)
Title : Swedish
Language : Swedish
Default : No
Forced : No

Text #10
ID : 13
Format : UTF-8
Codec ID : S_TEXT/UTF8
Codec ID/Info : UTF-8 Plain Text
Duration : 1 h 30 min
Bit rate : 27 b/s
Count of elements : 719
Stream size : 18.0 KiB (0%)
Title : Danish
Language : Danish
Default : No
Forced : No

Text #11
ID : 14
Format : UTF-8
Codec ID : S_TEXT/UTF8
Codec ID/Info : UTF-8 Plain Text
Duration : 1 h 30 min
Bit rate : 26 b/s
Count of elements : 679
Stream size : 17.8 KiB (0%)
Title : Finnish
Language : Finnish
Default : No
Forced : No

Text #12
ID : 15
Format : UTF-8
Codec ID : S_TEXT/UTF8
Codec ID/Info : UTF-8 Plain Text
Duration : 1 h 30 min
Bit rate : 26 b/s
Count of elements : 663
Stream size : 17.6 KiB (0%)
Title : Dutch
Language : Dutch
Default : No
Forced : No

Text #13
ID : 16
Format : UTF-8
Codec ID : S_TEXT/UTF8
Codec ID/Info : UTF-8 Plain Text
Duration : 1 h 30 min
Bit rate : 30 b/s
Count of elements : 729
Stream size : 20.3 KiB (0%)
Title : Norwegian
Language : Norwegian
Default : No
Forced : No

Text #14
ID : 17
Format : UTF-8
Codec ID : S_TEXT/UTF8
Codec ID/Info : UTF-8 Plain Text
Duration : 1 h 30 min
Bit rate : 54 b/s
Count of elements : 717
Stream size : 36.2 KiB (0%)
Title : Greek
Language : Greek
Default : No
Forced : No

Text #15
ID : 18
Format : UTF-8
Codec ID : S_TEXT/UTF8
Codec ID/Info : UTF-8 Plain Text
Duration : 1 h 30 min
Bit rate : 50 b/s
Count of elements : 723
Stream size : 33.7 KiB (0%)
Title : Arabic
Language : Arabic
Default : No
Forced : No

Text #16
ID : 19
Format : UTF-8
Codec ID : S_TEXT/UTF8
Codec ID/Info : UTF-8 Plain Text
Duration : 1 h 30 min
Bit rate : 30 b/s
Count of elements : 716
Stream size : 20.2 KiB (0%)
Title : Romanian
Language : Romanian
Default : No
Forced : No

Text #17
ID : 20
Format : UTF-8
Codec ID : S_TEXT/UTF8
Codec ID/Info : UTF-8 Plain Text
Duration : 1 h 30 min
Bit rate : 74 b/s
Count of elements : 729
Stream size : 49.3 KiB (0%)
Title : Thai
Language : Thai
Default : No
Forced : No

Text #18
ID : 21
Format : UTF-8
Codec ID : S_TEXT/UTF8
Codec ID/Info : UTF-8 Plain Text
Duration : 1 h 30 min
Bit rate : 34 b/s
Count of elements : 730
Stream size : 23.0 KiB (0%)
Title : Korean
Language : Korean
Default : No
Forced : No

Text #19
ID : 22
Format : UTF-8
Codec ID : S_TEXT/UTF8
Codec ID/Info : UTF-8 Plain Text
Duration : 1 h 30 min
Bit rate : 27 b/s
Count of elements : 732
Stream size : 17.9 KiB (0%)
Title : Chinese (Simplified)
Language : Chinese
Default : No
Forced : No

Text #20
ID : 23
Format : UTF-8
Codec ID : S_TEXT/UTF8
Codec ID/Info : UTF-8 Plain Text
Duration : 1 h 33 min
Bit rate : 27 b/s
Count of elements : 725
Stream size : 18.7 KiB (0%)
Title : Chinese (Traditional)
Language : Chinese
Default : No
Forced : No

Text #21
ID : 24
Format : UTF-8
Codec ID : S_TEXT/UTF8
Codec ID/Info : UTF-8 Plain Text
Duration : 1 h 33 min
Bit rate : 26 b/s
Count of elements : 767
Stream size : 18.4 KiB (0%)
Title : Japanese
Language : Japanese
Default : No
Forced : No
Скріншоти






Джерело:


Авторський реліз (завантажувати можна без реєстрації)
 Трекер:    Зареєстрований   

Завантажити / скачати фільм українською



відео для новачків



 Зареєстрований:   2019-02-02 23:27
 Розмір:   1.4 GB 
 Оцінка фільму:   8.3/10 (Голосів: 51)
   
Інші релізи
   Близько / Close (2019) 1080p Ukr/Eng | Sub Eng staf777  22 / 0   3.2 GB   2019-02-19 18:33 
   Близько / Close (2019) ssTAss  26 / 0   1.38 GB   2019-02-02 22:42 
Demyan 
Відео Гуртом - озвучення
Відео Гуртом - озвучення


З нами з: 04.02.10
Востаннє: 16.03.19
Повідомлень: 230

2019-02-03 16:48  
а як так на ІМДБ 5,6, а ви аж на 9 наголосували? Happy
FrankPazura 
Новенький


З нами з: 11.01.10
Востаннє: 22.03.19
Повідомлень: 3

2019-02-03 16:53  
Demyan
фемки голосували)

bandera21 
Свій


З нами з: 10.11.12
Востаннє: 15.03.19
Повідомлень: 86

2019-02-03 22:16  
Буде 1080?
ibsd 
Свій


З нами з: 06.09.10
Востаннє: 21.03.19
Повідомлень: 50

2019-02-04 19:54  
Нумі я люблю, але явно не в цьому кіні Wink (1)
taramon 
Частий відвідувач


З нами з: 28.09.09
Востаннє: 22.03.19
Повідомлень: 41

2019-02-05 08:19  
4/10
подорожній 
Свій


З нами з: 20.06.15
Востаннє: 22.03.19
Повідомлень: 127

2019-02-05 18:38  
Цитата:
Через кілька днів, перебуваючи в іншій країні, на молоду дівчину починається справжнє полювання

Може: "...під час перебування в іншій країні..."?

Anonymous 







2019-02-05 20:38  
подорожній написано:
Може: "...під час перебування в іншій країні..."?

може... замінив
опис не читав, брав з uafilm.tv

kuts-vv 
Поважний учасник


З нами з: 11.12.11
Востаннє: 22.03.19
Повідомлень: 211

2019-02-05 22:09  
Ну так, може бути...
Fonbaron 
Свій


З нами з: 09.12.12
Востаннє: 22.03.19
Повідомлень: 117

2019-02-14 16:40  
Хвігня повна :--/
Ганка 
Частий відвідувач


З нами з: 25.02.10
Востаннє: 23.03.19
Повідомлень: 28

2019-03-13 18:12  
У своєму жанрі - нормальок.
Вдалося до кінця додивитися без перемоток.
А це буває не завжди)

Ваш часовий пояс: GMT + 2 Години

Нова тема   Відповісти