Азартна гра / Blue Chips (1994) 720p Ukr/Eng | Sub Eng

Нові коментарі

Нова тема   Відповісти
Автор Повідомлення
Anonymous 







2019-02-02 20:57  
Азартна гра / Blue Chips (1994) 720p Ukr/Eng | Sub Eng

Азартна гра / Blue Chips (1994) 720p Ukr/Eng | Sub Eng


Жанр: драма, спорт
Країна: США



Кінокомпанія: Paramount Pictures
Режисер: Вільям Фрідкін
Актори: Нік Нолті, Мері МакДоннелл, Ед О'Нілл, Дж. Т. Волш, Елфрі Вудард, Шакіл О'Ніл, Роберт Вул, Луїс Госсетт-молодший

Сюжет:
Тренер баскетбольної команди опиняється перед дилемою: гра його команди у колишньому складі приречена на програш, а залучення нових гравців неможливе без порушення існуючих правил.


Тривалість: 01:47:53
Якість: 720p
Відео:
кодек:
розмір кадру: 1278х720
бітрейт: 4164 кб/с

Аудіо # 1:
мова: українська
переклад: багатоголосий закадровий | Так Треба Продакшн на замовлення
кодек: 2.0
бітрейт: 192 кб/с

Аудіо # 2:
мова: англійська
переклад: оригінал
кодек: 5.1
бітрейт: 384 кб/с

Субтитри:
мова: англійська
тип: програмні (м'які)
формат: *.srt
Info
General
Unique ID : 193962602823098541264072595379454585977 (0x91EBD6A712A6442F89FBC3CCFDF9AC79)
Complete name : H:\Toloka\2019\Blue Chips (1994) 720p.
Format :
Format version : Version 4
File size : 3.64 GiB
Duration : 1 h 47 min
Overall bit rate : 4 836 kb/s
Encoded date : UTC 2019-02-02 16:39:22
Writing application : v6.1.0 ('Old Devil') built on Mar 4 2013 09:10:42
Writing library : libebml v1.3.0 + v1.4.0

Video
ID : 1
Format : AVC
Format/Info : Advanced Video Codec
Format profile : [email protected]
Format settings : 2 Ref Frames
Format settings, CABAC : No
Format settings, RefFrames : 2 frames
Codec ID : V_MPEG4/ISO/AVC
Duration : 1 h 47 min
Bit rate : 4 164 kb/s
Width : 1 278 pixels
Height : 720 pixels
Display aspect ratio : 16:9
Frame rate mode : Constant
Frame rate : 23.976 FPS
Color space : YUV
Chroma subsampling : 4:2:0
Bit depth : 8 bits
Scan type : Progressive
Bits/(Pixel*Frame) : 0.189
Stream size : 3.14 GiB (86%)
Title : Blue.Chips.1994.720p.
Language : English
Default : Yes
Forced : No
Color range : Limited
Color primaries : BT.709
Transfer characteristics : BT.709
Matrix coefficients : BT.709

Audio #1
ID : 2
Format : AC-3
Format/Info : Audio Coding 3
Commercial name : Dolby Digital
Codec ID : A_AC3
Duration : 1 h 47 min
Bit rate mode : Constant
Bit rate : 192 kb/s
Channel(s) : 2 channels
Channel layout : L R
Sampling rate : 48.0 kHz
Frame rate : 31.250 FPS (1536 SPF)
Bit depth : 16 bits
Compression mode : Lossy
Stream size : 148 MiB (4%)
Title : UKR (Inter)
Language : Ukrainian
Service kind : Complete Main
Default : Yes
Forced : Yes

Audio #2
ID : 3
Format : AC-3
Format/Info : Audio Coding 3
Commercial name : Dolby Digital
Codec ID : A_AC3
Duration : 1 h 47 min
Bit rate mode : Constant
Bit rate : 384 kb/s
Channel(s) : 6 channels
Channel layout : L R C LFE Ls Rs
Sampling rate : 48.0 kHz
Frame rate : 31.250 FPS (1536 SPF)
Bit depth : 16 bits
Compression mode : Lossy
Stream size : 296 MiB (8%)
Title : English
Language : English
Service kind : Complete Main
Default : No
Forced : No

Text
ID : 4
Format : UTF-8
Codec ID : S_TEXT/UTF8
Codec ID/Info : UTF-8 Plain Text
Title : English
Language : English
Default : No
Forced : No
Скріншоти









За укр. доріжку подяка п.: akon111, Breniak
Особиста подяка пану denixx за надану матеріальну допомогу на підтримку цього і майбутніх релізів.
Джерело:


Срібний реліз (на рейтинг впливає 50% завантаженого)
 Трекер:    Зареєстрований   

Завантажити / скачати фільм українською



відео для новачків



 Зареєстрований:   2019-02-02 20:57
 Розмір:   3.64 GB 
 Оцінка фільму:   10/10 (Голосів: 2)
   
Інші релізи
   Азартна гра / Blue Chips (1994) Breniak  2 / 0   1.46 GB   2012-12-25 23:34 
casper101 
VIP


З нами з: 03.12.09
Востаннє: 19.04.19
Повідомлень: 393

2019-02-02 22:12  
Блакитні фішки.
Відьмачечок 
Свій


З нами з: 17.05.11
Востаннє: 17.04.19
Повідомлень: 106

2019-02-03 13:33  
casper101
Блакитні вівці)

Ваш часовий пояс: GMT + 2 Години

Нова тема   Відповісти