Інферно /Inferno (1999) 1080p Ukr/Eng | Sub Eng

Нові коментарі

Нова тема   Відповісти
Останній раз роздавалося staf777 (2019-09-18)
Автор Повідомлення
staf777 
Відео Гуртом - підтримка та поширення
Відео Гуртом - підтримка та поширення


З нами з: 16.11.16
Востаннє: 17.09.19
Повідомлень: 2865

2019-02-02 13:04  
Інферно /Inferno (1999) 1080p Ukr/Eng | Sub Eng

Інферно /Inferno (1999) 1080p Ukr/Eng | Sub Eng


Жанр: бойовик, драма, мелодрама, кримінальний
Країна: США



Кінокомпанія: Davis-Films, KPI Productions, Lomax Productions
Режисер: Джон Г. Евілдсен
Актори: Жан-Клод Ван Дамм, Пет Моріта, Денні Трехо, Гебріелль Фіцпатрік, Ларрі Дрейк, Вінсент Скьявеллі, Девід Шарк Фралік, Сайлас Уейр Мітчелл, Джонатан Евілдсен, Джеймі Преслі, Білл Ервін, Форд Рейні, Кевін Уест, Прісцилла Пойнтер, Роберт Саймондс, Пол Косло, Бретт Харрельсон, Джефф Кобер, Грегорі Скотт Каммінс, Нейл Делама, Ніккі Бокал, Келлі Юінг, Лі Тергесен, Стів Аделл, Ерік Од, Наталі Бариш, Філіп Брунс, Рей Чанг, Евелін Герерро, Джим Хенкс, Ліза МакКалло, Синтія Палмер, Майкл Пападжон, Ед Тротта, Дон Вуд

Сюжет:
Едді Ломакс - самотній воїн, що втратив віру в себе. Пошуки старого друга - самотнього індіанця-шамана - приводять його в зруйноване місто з пекельною назвою Інферно, де у Едді багато ворогів. Повний місяць і заклик койота допоможуть йому знайти колишню силу і здійснити мету: захистити місцевих мешканців від жорстоких банд байкерів і контрабандистів ...


Тривалість: 01:34:57
Якість: 1080p | GER Transfer
Відео:
кодек:
розмір кадру: 1920x1080
бітрейт: 10,5 Mб/с

Аудіо # 1:
мова: українська
переклад: двоголосий закадровий
кодек: 2.0
бітрейт: 192 кб/с
Увага! Присутні місця без перекладу:

00:48:48-00:48:59 - момент 18+ вирізано на ТБ
00:51:24-00:51:59 - момент 18+ вирізано на ТБ
01:04:20-01:04:26 - дроп при записі (фраза не суттєва)
Аудіо # 2:
мова: англійська
переклад: оригінал
кодек: 5.1
бітрейт: 640 кб/с

Джерело озвучення:


Субтитри:
мова: англійська
тип: програмні (м'які)
формат: *.srt
Info
General
Unique ID : 83040787486841126723374256196813635498 (0x3E7912EC981B09ED097E03F59D3CBFAA)
Complete name : S:\» HD українською » Фільми в HD\Бойовик\Inferno (1999) 1080p [UKR][ENG][Hurtom].
Format :
Format version : Version 4
File size : 7.51 GiB
Duration : 1 h 34 min
Overall bit rate : 11.3 Mb/s
Movie name : Inferno (1999) 1080p [UKR][ENG][Hurtom]
Encoded date : UTC 2019-02-05 15:56:18
Writing application : v30.1.0 ('Forever And More') 64-bit
Writing library : libebml v1.3.6 + v1.4.9
Cover : Yes
Attachments : cover.jpg

Video
ID : 1
Format : AVC
Format/Info : Advanced Video Codec
Format profile : [email protected]
Format settings : CABAC / 4 Ref Frames
Format settings, CABAC : Yes
Format settings, ReFrames : 4 frames
Codec ID : V_MPEG4/ISO/AVC
Duration : 1 h 34 min
Bit rate : 10.5 Mb/s
Width : 1 920 pixels
Height : 1 080 pixels
Display aspect ratio : 16:9
Frame rate mode : Constant
Frame rate : 24.000 FPS
Color space : YUV
Chroma subsampling : 4:2:0
Bit depth : 8 bits
Scan type : Progressive
Bits/(Pixel*Frame) : 0.211
Stream size : 6.95 GiB (93%)
Title : Release by N1NT3NDO
Writing library : core 130 r2273 b3065e6
Encoding settings : cabac=1 / ref=4 / deblock=1:-3:-3 / analyse=0x3:0x113 / me=umh / subme=10 / psy=1 / psy_rd=1.00:0.00 / mixed_ref=1 / me_range=32 / chroma_me=1 / trellis=2 / 8x8dct=1 / cqm=0 / deadzone=21,11 / fast_pskip=0 / chroma_qp_offset=-2 / threads=12 / lookahead_threads=1 / sliced_threads=0 / nr=0 / decimate=0 / interlaced=0 / bluray_compat=0 / constrained_intra=0 / bframes=5 / b_pyramid=2 / b_adapt=2 / b_bias=0 / direct=2 / weightb=1 / open_gop=0 / weightp=2 / keyint=240 / keyint_min=24 / scenecut=40 / intra_refresh=0 / rc_lookahead=80 / rc=2pass / mbtree=1 / bitrate=10481 / ratetol=1.0 / qcomp=0.60 / qpmin=0 / qpmax=69 / qpstep=4 / cplxblur=20.0 / qblur=0.5 / ip_ratio=1.40 / aq=1:0.70
Language : English
Default : Yes
Forced : No

Audio #1
ID : 2
Format : AC-3
Format/Info : Audio Coding 3
Commercial name : Dolby Digital
Codec ID : A_AC3
Duration : 1 h 34 min
Bit rate mode : Constant
Bit rate : 192 kb/s
Channel(s) : 2 channels
Channel layout : L R
Sampling rate : 48.0 kHz
Frame rate : 31.250 FPS (1536 SPF)
Bit depth : 16 bits
Compression mode : Lossy
Stream size : 130 MiB (2%)
Title : DVO-2+2
Language : Ukrainian
Service kind : Complete Main
Default : Yes
Forced : Yes

Audio #2
ID : 3
Format : AC-3
Format/Info : Audio Coding 3
Commercial name : Dolby Digital
Codec ID : A_AC3
Duration : 1 h 34 min
Bit rate mode : Constant
Bit rate : 640 kb/s
Channel(s) : 2 channels
Channel layout : L R
Sampling rate : 48.0 kHz
Frame rate : 31.250 FPS (1536 SPF)
Bit depth : 16 bits
Compression mode : Lossy
Stream size : 435 MiB (6%)
Title : Eng
Language : English
Service kind : Complete Main
Default : No
Forced : No

Text
ID : 4
Format : UTF-8
Codec ID : S_TEXT/UTF8
Codec ID/Info : UTF-8 Plain Text
Duration : 1 h 25 min
Bit rate : 56 b/s
Count of elements : 982
Stream size : 35.3 KiB (0%)
Title : Eng
Language : English
Default : No
Forced : No

Menu
00:00:00.000 : :Chapter 01
00:08:14.208 : :Chapter 02
00:16:51.708 : :Chapter 03
00:24:17.333 : :Chapter 04
00:35:18.666 : :Chapter 05
00:41:43.125 : :Chapter 06
00:50:51.833 : :Chapter 07
00:58:19.708 : :Chapter 08
01:05:47.708 : :Chapter 09
01:14:26.707 : :Chapter 10
01:21:56.875 : :Chapter 11
01:28:39.000 : :Chapter 12
Скріншоти






Запис з ТБ Bohdan237, синхронізація drop_plz, постер Ham_R
Джерело: & Інше
Особиста оцінка: 0 - не дивився
ЗАЛИШАЙТЕСЬ ЯКОМОГА ДОВШЕ НА РОЗДАЧІ!

СКАЧАВ САМ - ДАЙ СКАЧАТИ ІНШИМ



Срібний реліз (на рейтинг впливає 50% завантаженого)
 Трекер:    Зареєстрований   

Завантажити / скачати фільм українською



відео для новачків



 Зареєстрований:   2019-02-05 19:38
 Розмір:   7.51 GB 
 Оцінка фільму:   8.6/10 (Голосів: 7)
   
Ham_R 
Відео Гуртом - дизайнер
Відео Гуртом - дизайнер


З нами з: 23.04.13
Востаннє: 17.09.19
Повідомлень: 117

2019-02-02 15:20  

Sando7 
Відео Гуртом - запис з ТБ
Відео Гуртом - запис з ТБ


З нами з: 04.05.09
Востаннє: 17.09.19
Повідомлень: 1506

2019-02-02 23:43  
Ham_R
Чому "У кожного свій Ад" ? Чому не "У кожного своє пекло" ???

bot 
робот


З нами з: 30.09.07
Востаннє: 26.05.05
Повідомлень: 22059

2019-02-05 19:30  
Тему перенесено з Анонси релізів до форуму HD українською


staf777

staf777 
Відео Гуртом - підтримка та поширення
Відео Гуртом - підтримка та поширення


З нами з: 16.11.16
Востаннє: 17.09.19
Повідомлень: 2865

2019-02-05 19:34  
Ham_R
Дякую за постер

bot 
робот


З нами з: 30.09.07
Востаннє: 26.05.05
Повідомлень: 22059

2019-02-05 19:37  
Тему перенесено з HD українською до форуму Фільми в HD


igor911

taksist 
VIP


З нами з: 10.12.12
Востаннє: 18.09.19
Повідомлень: 262

2019-02-06 00:08  
окреме місце в пеклі зарезервоване за тими, хто вважає що вони в аду.
Ham_R 
Відео Гуртом - дизайнер
Відео Гуртом - дизайнер


З нами з: 23.04.13
Востаннє: 17.09.19
Повідомлень: 117

2019-02-06 12:52  
Sando7

Ваш часовий пояс: GMT + 2 Години

Нова тема   Відповісти