Вдови / Widows (2018) Remux 1080p Ukr/Eng | Sub Ukr/Eng

Нові коментарі

Нова тема   Відповісти
Автор Повідомлення
staf777 
Відео Гуртом - підтримка та поширення
Відео Гуртом - підтримка та поширення


З нами з: 16.11.16
Востаннє: 11.12.19
Повідомлень: 3042

2019-02-01 22:16  
Вдови / Widows (2018) Remux 1080p Ukr/Eng | Sub Ukr/Eng




Жанр: драма, кримінальний, трилер
Країна: Велика Британія, США



Кінокомпанія: Regency Enterprises, See-Saw Films, Film4
Режисер: Стів МакКвін
Актори: Віола Девіс, Мішель Родрігес, Елізабет Дебікі, Синтія Еріво, Колін Фаррелл, Брайан Тайрі Генрі, Деніел Калуя, Ліам Нісон, Керрі Кун, Роберт Дювалл

Сюжет:
Сучасне Чикаго. В часи сум'яття четверо жінок, які не мають нічого спільного, крім заборгованості, що залишилася від кримінальної діяльності їх померлих чоловіків, беруть долю в свої руки і змовляються створити майбутнє на власних умовах.


Тривалість: 02:09:34
Якість: Remux 1080p

Відео:
кодек:
розмір кадру: 1920x1080
бітрейт: 26,8 Mб/с

Аудіо # 1:
мова: українська
переклад: професійний дубльований | студія Postmodern
кодек: 5.1
бітрейт: 448 кб/с

Аудіо # 2:
мова: англійська
переклад: оригінал
кодек: -HD MA 7.1
бітрейт: 4732 кб/с

Субтитри: (Forced, Full)
мова: українська
тип: програмні (м'які)
формат: *.srt

Субтитри: (Full, SDH)
мова: англійська
тип: програмні (м'які)
формат: *.srt
Info
Код:
General
Unique ID                   : 128897434148392338819836301639694143828 (0x60F8BE2953D4B8D16489E028AB37D154)
Complete name               : S:\» HD українською » Фільми в HD\Трилер\Widows (2018) Remux 1080p [Ukr.Eng][Hurtom].
Format                      :
Format version              : Version 4
File size                   : 28.9 GiB
Duration                    : 2 h 9 min
Overall bit rate mode       : Variable
Overall bit rate            : 32.0 Mb/s
Movie name                  : Widows (2018) Remux 1080p [Ukr.Eng][Hurtom]
Encoded date                : UTC 2019-02-09 16:21:13
Writing application         : v30.1.0 ('Forever And More') 64-bit
Writing library             : libebml v1.3.6 + v1.4.9
Cover                       : Yes
Attachments                 : cover

Video
ID                          : 1
Format                      : AVC
Format/Info                 : Advanced Video Codec
Format profile              : [email protected]
Format settings             : CABAC / 4 Ref Frames
Format settings, CABAC      : Yes
Format settings, ReFrames   : 4 frames
Codec ID                    : V_MPEG4/ISO/AVC
Duration                    : 2 h 9 min
Bit rate mode               : Variable
Bit rate                    : 26.8 Mb/s
Maximum bit rate            : 33.0 Mb/s
Width                       : 1 920 pixels
Height                      : 1 080 pixels
Display aspect ratio        : 16:9
Frame rate mode             : Constant
Frame rate                  : 23.976 (24000/1001) FPS
Color space                 : YUV
Chroma subsampling          : 4:2:0
Bit depth                   : 8 bits
Scan type                   : Progressive
Bits/(Pixel*Frame)          : 0.539
Stream size                 : 24.2 GiB (84%)
Language                    : English
Default                     : Yes
Forced                      : No

Audio #1
ID                          : 2
Format                      : AC-3
Format/Info                 : Audio Coding 3
Commercial name             : Dolby Digital
Codec ID                    : A_AC3
Duration                    : 2 h 9 min
Bit rate mode               : Constant
Bit rate                    : 448 kb/s
Channel(s)                  : 6 channels
Channel layout              : L R C LFE Ls Rs
Sampling rate               : 48.0 kHz
Frame rate                  : 31.250 FPS (1536 SPF)
Bit depth                   : 16 bits
Compression mode            : Lossy
Stream size                 : 415 MiB (1%)
Title                       : Dub [Postmodern, Blu-ray CEE] 5.1 448 Kbps
Language                    : Ukrainian
Service kind                : Complete Main
Default                     : Yes
Forced                      : Yes

Audio #2
ID                          : 3
Format                      : XLL
Format/Info                 : Digital Theater Systems
Commercial name             : -HD Master Audio
Codec ID                    : A_DTS
Duration                    : 2 h 9 min
Bit rate mode               : Variable
Bit rate                    : 4 732 kb/s
Channel(s)                  : 8 channels
Channel layout              : C L R LFE Lb Rb Lss Rss
Sampling rate               : 48.0 kHz
Frame rate                  : 93.750 FPS (512 SPF)
Bit depth                   : 24 bits
Compression mode            : Lossless
Stream size                 : 4.28 GiB (15%)
Title                       : Original
Language                    : English
Default                     : No
Forced                      : No

Text #1
ID                          : 4
Format                      : UTF-8
Codec ID                    : S_TEXT/UTF8
Codec ID/Info               : UTF-8 Plain Text
Duration                    : 2 h 3 min
Bit rate                    : 1 b/s
Count of elements           : 26
Stream size                 : 1.03 KiB (0%)
Title                       : [Forced]
Language                    : Ukrainian
Default                     : Yes
Forced                      : Yes

Text #2
ID                          : 5
Format                      : UTF-8
Codec ID                    : S_TEXT/UTF8
Codec ID/Info               : UTF-8 Plain Text
Duration                    : 2 h 8 min
Bit rate                    : 85 b/s
Count of elements           : 1626
Stream size                 : 80.3 KiB (0%)
Title                       : [Full]
Language                    : Ukrainian
Default                     : No
Forced                      : No

Text #3
ID                          : 6
Format                      : UTF-8
Codec ID                    : S_TEXT/UTF8
Codec ID/Info               : UTF-8 Plain Text
Duration                    : 2 h 5 min
Bit rate                    : 63 b/s
Count of elements           : 1895
Stream size                 : 58.7 KiB (0%)
Title                       : Full
Language                    : English
Default                     : No
Forced                      : No

Text #4
ID                          : 7
Format                      : UTF-8
Codec ID                    : S_TEXT/UTF8
Codec ID/Info               : UTF-8 Plain Text
Duration                    : 2 h 5 min
Bit rate                    : 71 b/s
Count of elements           : 2115
Stream size                 : 65.8 KiB (0%)
Title                       : SDH
Language                    : English
Default                     : No
Forced                      : No

Menu
00:00:00.000                : en:Chapter 01
00:03:41.388                : en:Chapter 02
00:09:00.415                : en:Chapter 03
00:14:14.604                : en:Chapter 04
00:21:43.010                : en:Chapter 05
00:28:14.401                : en:Chapter 06
00:36:07.082                : en:Chapter 07
00:41:01.751                : en:Chapter 08
00:45:58.673                : en:Chapter 09
00:53:18.070                : en:Chapter 10
00:58:11.321                : en:Chapter 11
01:03:51.703                : en:Chapter 12
01:09:56.776                : en:Chapter 13
01:12:53.786                : en:Chapter 14
01:17:21.846                : en:Chapter 15
01:26:19.674                : en:Chapter 16
01:33:29.312                : en:Chapter 17
01:35:53.373                : en:Chapter 18
01:39:10.486                : en:Chapter 19
01:42:20.092                : en:Chapter 20
01:46:12.408                : en:Chapter 21
01:53:14.121                : en:Chapter 22
01:58:18.675                : en:Chapter 23
02:03:48.671                : en:Chapter 24




Джерело: & Інше
Особиста оцінка: 8 - мені сподобалося
Вдови / Widows (2018) Remux 1080p Ukr/Eng | Sub Ukr/Eng Вдови / Widows (2018) Remux 1080p Ukr/Eng | Sub Ukr/Eng


Золотий реліз (завантажене не впливає на рейтинг)
 Трекер:    Зареєстрований   

Завантажити / скачати фільм українською



відео для новачків



 Зареєстрований:   2019-02-09 18:54
 Розмір:   28.93 GB 
 Оцінка фільму:   7.6/10 (Голосів: 16)
   
Інші релізи
   Вдови / Widows (2018) UHD Remux 4K 2160p HDR H.265 Ukr/Eng | Ukr/Eng antik_2008  0 / 0   48.14 GB   2019-02-10 11:32 
   Вдови / Widows (2018) 1080p H.265 Ukr/Eng | Sub Ukr/Eng antik_2008  3 / 0   6.51 GB   2019-02-09 21:27 
   Вдови / Widows (2018) Ukr/Eng | Sub Ukr/Eng antik_2008  1 / 0   2.59 GB   2019-02-09 20:11 
   Вдови / Widows (2018) 1080p Ukr/Eng | Sub Ukr/Eng/Spa/Fre igor911  3 / 0   16.87 GB   2019-02-09 17:32 
   Вдови / Widows (2018) uafilm.tv  3 / 0   2.18 GB   2019-02-09 17:27 
   Вдови / Widows (2018) 720p Ukr/Eng | Sub Ukr/Eng 11FrYkT  6 / 0   5.07 GB   2019-02-09 11:46 
   Вдови / Widows (2018) AVC Ukr/Eng | Sub Ukr/Eng 11FrYkT  3 / 0   2.47 GB   2019-02-09 11:27 
Wensun 
Свій


З нами з: 20.01.09
Востаннє: 10.12.19
Повідомлень: 146

2019-02-05 19:53  
8/10 прикольний фільм..
staf777 
Відео Гуртом - підтримка та поширення
Відео Гуртом - підтримка та поширення


З нами з: 16.11.16
Востаннє: 11.12.19
Повідомлень: 3042

2019-02-06 09:24  
Оновив доріжку на 
staf777 
Відео Гуртом - підтримка та поширення
Відео Гуртом - підтримка та поширення


З нами з: 16.11.16
Востаннє: 11.12.19
Повідомлень: 3042

2019-02-09 18:56  
Оновив доріжку на
Ваш часовий пояс: GMT + 2 Години

Нова тема   Відповісти