Всесвітня Війна Z [Розширена версія] / World War Z [Unrated Cut] (2013) Remux 1080p Ukr/Eng | Sub Ukr/Eng

Нові коментарі

Нова тема   Відповісти
Автор Повідомлення
staf777 
Відео Гуртом - підтримка та поширення
Відео Гуртом - підтримка та поширення


З нами з: 16.11.16
Востаннє: 17.11.19
Повідомлень: 3033

2019-02-01 22:06  
Всесвітня Війна Z [Розширена версія] / World War Z [Unrated Cut] (2013) Remux 1080p Ukr/Eng | Sub Ukr/Eng

Всесвітня Війна Z [Розширена версія] / World War Z [Unrated Cut] (2013) Remux 1080p Ukr/Eng | Sub Ukr/Eng


Жанр: пригодницький, трилер, фантастика
Країна: США, Мальта



Кінокомпанія: Plan B Entertainment, Apparatus Productions, GK Films
Режисер: Марк Форстер (Marc Forster)
Актори: Бред Пітт (Brad Pitt), Мірей Енос (Mireille Enos), Джеймс Бедж Дейл (James Badge Dale), Метью Фокс (Matthew Fox), Даніелла Кертеш (Daniella Kertesz), Луді Бокен (Ludi Boeken), Фана Мокоена (Fana Mokoena)...

Сюжет:
Напад живих мерців — не жарт і не казка. Зомбі зненацька стали реальністю, яка загрожує загибеллю всьому людству. Гниючі, напіврозкладені, вони практично невразливі — зате найдрібніше поранення, нанесене ними живій людині, загрожує перетворити її на зомбі. Епічна битва розгортається на всіх континентах і охоплює безліч країн, від Китаю до США і від Куби до Росії. Земля — на межі катастрофи. І зовсім незрозуміло, як знищити супротивника, який уже мертвий.....


Тривалість: 02:03:04
Якість: Remux 1080p
Відео:
кодек:
розмір кадру: 1920x1080
бітрейт: 29,4 Mб/с

Аудіо # 1:
мова: українська
переклад: професійний дубльований з вставками оригіналу
кодек: 5.1
бітрейт: 448 кб/с
примітка: епізоди розширеної версії без укр.озвучення! на них є форсовані субтитри

Аудіо # 2:
мова: англійська
переклад: оригінал
кодек: -HD MA 5.1
бітрейт: 4991 кб/с

Джерело озвучення:


Субтитри:(форсовані на місця без перекладу) + (повні)
мова: українська
тип: програмні (м'які)
формат: *.srt

Субтитри: (Forced + Full + SDH)
мова: англійська
тип: програмні (м'які)
формат: *.srt
Info
General
Unique ID : 339708153017489600720676013939494002164 (0xFF9169119AF8B4625CB660ED68009DF4)
Complete name : S:\» HD українською » Фільми в HD\Фантастика\World War Z [Unrated Cut] (2013) Remux 1080p [UKR][ENG][Hurtom].
Format :
Format version : Version 4
File size : 30.0 GiB
Duration : 2 h 3 min
Overall bit rate mode : Variable
Overall bit rate : 34.9 Mb/s
Movie name : World War Z [Unrated Cut] (2013) Remux 1080p [UKR][ENG][Hurtom]
Encoded date : UTC 2019-02-03 11:49:14
Writing application : v30.1.0 ('Forever And More') 64-bit
Writing library : libebml v1.3.6 + v1.4.9
Cover : Yes
Attachments : cover.png

Video
ID : 1
Format : AVC
Format/Info : Advanced Video Codec
Format profile : [email protected]
Format settings : CABAC / 4 Ref Frames
Format settings, CABAC : Yes
Format settings, ReFrames : 4 frames
Codec ID : V_MPEG4/ISO/AVC
Duration : 2 h 3 min
Bit rate mode : Variable
Bit rate : 29.4 Mb/s
Maximum bit rate : 34.0 Mb/s
Width : 1 920 pixels
Height : 1 080 pixels
Display aspect ratio : 16:9
Frame rate mode : Constant
Frame rate : 23.976 (24000/1001) FPS
Color space : YUV
Chroma subsampling : 4:2:0
Bit depth : 8 bits
Scan type : Progressive
Bits/(Pixel*Frame) : 0.592
Stream size : 25.3 GiB (84%)
Title : Remux
Language : English
Default : No
Forced : No

Audio #1
ID : 2
Format : AC-3
Format/Info : Audio Coding 3
Commercial name : Dolby Digital
Codec ID : A_AC3
Duration : 2 h 3 min
Bit rate mode : Constant
Bit rate : 448 kb/s
Channel(s) : 6 channels
Channel layout : L R C LFE Ls Rs
Sampling rate : 48.0 kHz
Frame rate : 31.250 FPS (1536 SPF)
Bit depth : 16 bits
Compression mode : Lossy
Stream size : 394 MiB (1%)
Title : [UA-DUB]
Language : Ukrainian
Service kind : Complete Main
Default : Yes
Forced : Yes

Audio #2
ID : 3
Format : XLL
Format/Info : Digital Theater Systems
Commercial name : -HD Master Audio
Codec ID : A_DTS
Duration : 2 h 3 min
Bit rate mode : Variable
Bit rate : 4 991 kb/s
Channel(s) : 8 channels
Channel layout : C L R LFE Lb Rb Lss Rss
Sampling rate : 48.0 kHz
Frame rate : 93.750 FPS (512 SPF)
Bit depth : 24 bits
Compression mode : Lossless
Stream size : 4.29 GiB (14%)
Title : Original
Language : English
Default : No
Forced : No

Text #1
ID : 4
Format : UTF-8
Codec ID : S_TEXT/UTF8
Codec ID/Info : UTF-8 Plain Text
Duration : 1 h 46 min
Bit rate : 1 b/s
Count of elements : 36
Stream size : 1.35 KiB (0%)
Title : [Forced]
Language : Ukrainian
Default : Yes
Forced : Yes

Text #2
ID : 5
Format : UTF-8
Codec ID : S_TEXT/UTF8
Codec ID/Info : UTF-8 Plain Text
Duration : 1 h 55 min
Bit rate : 72 b/s
Count of elements : 1267
Stream size : 61.3 KiB (0%)
Title : [Full]
Language : Ukrainian
Default : No
Forced : No

Text #3
ID : 6
Format : UTF-8
Codec ID : S_TEXT/UTF8
Codec ID/Info : UTF-8 Plain Text
Duration : 52 min 37 s
Bit rate : 0 b/s
Count of elements : 9
Stream size : 260 Bytes (0%)
Title : Sub-forced
Language : English
Default : No
Forced : No

Text #4
ID : 7
Format : UTF-8
Codec ID : S_TEXT/UTF8
Codec ID/Info : UTF-8 Plain Text
Duration : 1 h 54 min
Bit rate : 44 b/s
Count of elements : 1248
Stream size : 37.2 KiB (0%)
Title : Sub-full
Language : English
Default : No
Forced : No

Text #5
ID : 8
Format : UTF-8
Codec ID : S_TEXT/UTF8
Codec ID/Info : UTF-8 Plain Text
Duration : 1 h 54 min
Bit rate : 53 b/s
Count of elements : 1521
Stream size : 44.4 KiB (0%)
Title : Sub-SDH
Language : English
Default : No
Forced : No

Menu
00:00:00.000 : :Chapter 01
00:05:05.179 : :Chapter 02
00:13:53.999 : :Chapter 03
00:22:43.195 : :Chapter 04
00:29:46.034 : :Chapter 05
00:35:21.494 : :Chapter 06
00:42:23.457 : :Chapter 07
00:52:37.946 : :Chapter 08
00:58:53.821 : :Chapter 09
01:07:18.868 : :Chapter 10
01:15:11.757 : :Chapter 11
01:24:02.037 : :Chapter 12
01:29:08.801 : :Chapter 13
01:34:50.518 : :Chapter 14
01:43:45.469 : :Chapter 15
01:52:17.981 : :Chapter 16
01:55:51.653 : :Chapter 17



За українську аудіодоріжку та субтитри дякую пану Demrandir
Джерело: & Talian70
Особиста оцінка: 8 - мені сподобалося
Всесвітня Війна Z [Розширена версія] / World War Z [Unrated Cut] (2013) Remux 1080p Ukr/Eng | Sub Ukr/Eng

Всесвітня Війна Z [Розширена версія] / World War Z [Unrated Cut] (2013) Remux 1080p Ukr/Eng | Sub Ukr/Eng


Золотий реліз (завантажене не впливає на рейтинг)
 Трекер:    Зареєстрований   

Завантажити / скачати фільм українською



відео для новачків



 Зареєстрований:   2019-02-03 16:49
 Розмір:   29.97 GB 
 Оцінка фільму:   8.9/10 (Голосів: 12)
   
Інші релізи
   Всесвітня Війна Z [Розширена версія] / World War Z [Unrated Cut] (2013) 720p Ukr/Eng | Sub Ukr/Eng staf777  5 / 0   4.54 GB   2018-09-28 20:48 
   Всесвітня Війна Z [Розширена версія] / World War Z [Unrated Cut] (2013) AVC Ukr/Eng | Sub Ukr/Eng Yarik M  8 / 0   2.27 GB   2015-11-21 13:34 
   Всесвітня Війна Z [Розширена версія] / World War Z [Unrated Cut] (2013) 1080p Ukr/Eng | Sub Ukr/Eng Demrandir  7 / 0   11.57 GB   2015-11-19 21:18 
   Всесвітня Війна Z [Розширена версія] / World War Z [Unrated Cut] (2013) [5.1 ] Український дубляж + вставки оригіналу | Sub Ukr Demrandir  1 / 0   394 MB   2015-11-19 19:02 
   Всесвітня Війна Z / World War Z (2013) 1080p H.265 Ukr/Eng | Sub Ukr/Eng Tenax555  4 / 0   7.77 GB   2014-09-19 23:17 
   Всесвітня Війна Z / World War Z (2013) 1080p | 3D-Video seroga13  2 / 0   8.78 GB   2013-10-15 21:33 
   Всесвітня Війна Z / World War Z [Theatrical Cut] (2013) Remux 1080p Ukr/Eng | Sub Ukr/Eng 11FrYkT  1 / 0   28.18 GB   2013-10-09 06:53 
   Всесвітня Війна Z / World War Z [Theatrical Cut] (2013) AVC Ukr/Eng | Sub Ukr/Eng 11FrYkT  0 / 0   2.75 GB   2013-10-08 16:41 
   Всесвітня Війна Z / World War Z (2013) 720p Ukr/Eng | Sub Ukr/Eng sergiyko  1 / 0   5.18 GB   2013-10-08 13:12 
   Всесвітня Війна Z / World War Z (2013) sergiyko  14 / 0   1.51 GB   2013-10-08 12:38 
   Всесвітня Війна Z [Театральна версія] / World War Z [Theatrical Cut] (2013) 1080p Ukr/Eng | Sub Ukr/Eng igor911  2 / 0   9.7 GB   2013-10-08 03:56 
   Всесвітня війна Z [Театральна версія] / World War Z [Theatrical Cut] (2013) Ukr/Eng | Sub Ukr/Eng Jatx_11  3 / 0   2.18 GB   2013-10-07 23:34 
bot 
робот


З нами з: 30.09.07
Востаннє: 26.05.05
Повідомлень: 22476

2019-02-03 16:49  
Тему перенесено з Анонси релізів до форуму Фільми в HD


staf777

Ваш часовий пояс: GMT + 2 Години

Нова тема   Відповісти