Зруйновані замки / Brokedown palace (1999) 1080p Ukr/Eng | Sub Eng

Нові коментарі

Нова тема   Відповісти
Автор Повідомлення
Anonymous 







2019-02-01 15:48  
Зруйновані замки / Brokedown palace (1999) 1080p Ukr/Eng | Sub Eng

Зруйновані замки / Brokedown palace (1999) 1080p Ukr/Eng | Sub Eng


Жанр: трилер, драма
Країна: США



Кінокомпанія: 20th Century Fox Film Corporation, Adam Fields Productions, Fox 2000 Pictures, Two Girls Productions
Режисер: Джонатан Каплан
Актори: Клер Дейнс, Кейт Бекінсейл, Біл Пулман, Жаклін Кім, Лу Дайемонд Філіпс, Деніел Лапейн, Том Амандес, Аймі Грем, Джон Доу, Кей Тонг Лім

Сюжет:
Дві подружки Еліс Марано і Дарлін Девіс вирішили поїхати в Таїланд і відсвяткувати закінчення середньої школи. Сонце, море, екзотика і ... новий знайомий, чарівний австралієць Нік Паркс - веселий, загадковий і викликає безмежну довіру.
Закоханість і нерозсудливість затьмарюють здоровий ґлузд, і, піддавшись умовлянням Ніка, подружки відправляються на уік-енд в Гонконг. Казкова подорож обертається кошмарним сном: прямо з аеропорту дівчата потрапляють до таїландської в'язниці: в рюкзаку Еліс виявлений героїн ...


Тривалість: 01:40:41
Якість: 1080p
Відео:
кодек:
розмір кадру: 1912x820
бітрейт: 10,1 Мб/с

Аудіо # 1:
мова: українська
переклад: двоголосий закадровий
кодек: 2.0
бітрейт: 192 кб/с

Аудіо # 2:
мова: англійська
переклад: оригінал
кодек: 5.1
бітрейт: 448 кб/с

Субтитри:
мова: англійська
тип: програмні (м'які)
формат: *.srt
Info
General
Unique ID : 177633640207919016291988528005857155543 (0x85A2FEA364DA9402AF71B9479F5019D7)
Format :
Format version : Version 4
File size : 7.58 GiB
Duration : 1 h 40 min
Overall bit rate : 10.8 Mb/s
Movie name : Brokedown Palace.1999..1080p
Encoded date : UTC 2019-02-01 12:37:14
Writing application : v6.1.0 ('Old Devil') built on Mar 4 2013 09:10:42
Writing library : libebml v1.3.0 + v1.4.0

Video
ID : 1
Format : AVC
Format/Info : Advanced Video Codec
Format profile : [email protected]
Format settings : CABAC / 5 Ref Frames
Format settings, CABAC : Yes
Format settings, RefFrames : 5 frames
Codec ID : V_MPEG4/ISO/AVC
Duration : 1 h 40 min
Bit rate : 10.1 Mb/s
Width : 1 912 pixels
Height : 820 pixels
Display aspect ratio : 2.35:1
Frame rate mode : Constant
Frame rate : 23.976 (23976/1000) FPS
Color space : YUV
Chroma subsampling : 4:2:0
Bit depth : 8 bits
Scan type : Progressive
Bits/(Pixel*Frame) : 0.270
Stream size : 6.98 GiB (92%)
Writing library : core 157 r2935 545de2f
Encoding settings : cabac=1 / ref=5 / deblock=1:-3:-3 / analyse=0x3:0x133 / me=umh / subme=11 / psy=1 / psy_rd=1.00:0.10 / mixed_ref=1 / me_range=32 / chroma_me=1 / trellis=2 / 8x8dct=1 / cqm=0 / deadzone=21,11 / fast_pskip=0 / chroma_qp_offset=-3 / threads=12 / lookahead_threads=2 / sliced_threads=0 / nr=0 / decimate=1 / interlaced=0 / bluray_compat=0 / constrained_intra=0 / bframes=9 / b_pyramid=2 / b_adapt=2 / b_bias=0 / direct=3 / weightb=1 / open_gop=0 / weightp=2 / keyint=240 / keyint_min=23 / scenecut=40 / intra_refresh=0 / rc_lookahead=60 / rc=2pass / mbtree=0 / bitrate=10135 / ratetol=1.0 / qcomp=0.60 / qpmin=0 / qpmax=69 / qpstep=4 / cplxblur=20.0 / qblur=0.5 / vbv_maxrate=30000 / vbv_bufsize=33000 / nal_hrd=none / filler=0 / ip_ratio=1.40 / pb_ratio=1.30 / aq=3:0.70
Language : English
Default : Yes
Forced : No

Audio #1
ID : 2
Format : AC-3
Format/Info : Audio Coding 3
Commercial name : Dolby Digital
Codec ID : A_AC3
Duration : 1 h 40 min
Bit rate mode : Constant
Bit rate : 192 kb/s
Channel(s) : 2 channels
Channel layout : L R
Sampling rate : 48.0 kHz
Frame rate : 31.250 FPS (1536 SPF)
Bit depth : 16 bits
Compression mode : Lossy
Stream size : 138 MiB (2%)
Title : UKR (ICTV)
Language : Ukrainian
Service kind : Complete Main
Default : Yes
Forced : Yes

Audio #2
ID : 3
Format : AC-3
Format/Info : Audio Coding 3
Commercial name : Dolby Digital
Codec ID : A_AC3
Duration : 1 h 40 min
Bit rate mode : Constant
Bit rate : 448 kb/s
Channel(s) : 6 channels
Channel layout : L R C LFE Ls Rs
Sampling rate : 48.0 kHz
Frame rate : 31.250 FPS (1536 SPF)
Bit depth : 16 bits
Compression mode : Lossy
Stream size : 323 MiB (4%)
Language : English
Service kind : Complete Main
Default : No
Forced : No

Text
ID : 4
Format : UTF-8
Codec ID : S_TEXT/UTF8
Codec ID/Info : UTF-8 Plain Text
Language : English
Default : No
Forced : No

Menu
00:00:00.000 : en:Chapter 01
00:04:57.046 : en:Chapter 02
00:14:20.651 : en:Chapter 03
00:21:16.149 : en:Chapter 04
00:27:39.949 : en:Chapter 05
00:37:39.298 : en:Chapter 06
00:47:12.663 : en:Chapter 07
00:55:36.416 : en:Chapter 08
01:04:41.752 : en:Chapter 09
01:14:29.840 : en:Chapter 10
01:25:29.332 : en:Chapter 11
Скріншоти








За українську доріжку подяка п. PIKNIK2008
Особиста подяка пану denixx за надану матеріальну допомогу на підтримку цього і майбутніх релізів.
Джерело:


Срібний реліз (на рейтинг впливає 50% завантаженого)
 Трекер:    Зареєстрований   

Завантажити / скачати фільм українською



відео для новачків



 Зареєстрований:   2019-02-01 15:48
 Розмір:   7.58 GB 
 Оцінка фільму:   9.6/10 (Голосів: 5)
   
Інші релізи
LesiaLesia 
Частий відвідувач


З нами з: 03.05.12
Востаннє: 23.04.19
Повідомлень: 30

2019-02-01 18:29  
Дякую за фільм з Кейт, вона шикарна)
Ваш часовий пояс: GMT + 2 Години

Нова тема   Відповісти