Теорія великого вибуху (Сезон 10) / The Big Bang Theory (Season 10) (2016) 1080p Ukr/Eng | Sub Eng

Нові коментарі

Нова тема   Відповісти
Автор Повідомлення
Argentum 
VIP


З нами з: 25.09.11
Востаннє: 05.12.20
Повідомлень: 263

2019-01-31 12:15  
Теорія великого вибуху (Сезон 10) / The Big Bang Theory (Season 10) (2016) 1080p Ukr/Eng | Sub Eng


Теорія великого вибуху (Сезон 10) / The Big Bang Theory (Season 10) (2016) 1080p Ukr/Eng | Sub Eng


Жанр: комедія
Країна: США



Кінокомпанія: Chuck Lorre Productions, Warner Brothers Television
Режисер: Марк Цендровський, Ентоні Джозеф Річ, Пітер Чакос
Актори: Джоні Ґалецкі, Джим Парсонс, Кейлі Куоко, Саймон Гелберґ, Кунал Найар, Мелісса Ройч, Маїм Бялік

Сюжет:
Леонард і Шелдон — блискучі фізики, розумники, що знаються на тому, як "працює всесвіт". Але геніальність ані трішечки не допомагає їм у спілкуванні з людьми, особливо жінками. Шелдон взагалі вважає, що чоловіки та жінки належать до різних біологічних видів. Але для Леонарда все змінюється з появою нової сусідки — білявки Пенні.

Друзі геніїв не менш дивакуваті. Воловіц живе зі своєю мамою та стверджує, що насправді це вона з ним живе. Вдає з себе дамського улюбленця, систематично застосовуючи сумнівні поради по знайомству з дівчатами. Раджеш Кутрапалі приймає ліки для подолання патологічної скромності, але все одно втрачає дар мови при появі жінок.

Персонажі серіала відрізняються неабиякими розумовими здібностями, мають свої "фішки" та звички. Коло друзів поступово змінюється, а життя підкидає все більше теорем і парадоксів...


Тривалість: 1 серія: 22:00 (цілком серій: 24)
Перелік серій
10x01. The Conjugal Conjecture
10x02. The Military Miniaturization
10x03. The Dependence Transcendence
10x04. The Cohabitation Experimentation
10x05. The Hot Tub Contamination
10x06. The Fetal Kick Catalyst
10x07. The Veracity Elasticity
10x08. The Brain Bowl Incubation
10x09. The Geology Elevation
10x10. The Property Division Collision
10x11. The Birthday Synchronicity
10x12. The Holiday Summation
10x13. The Romance Recalibration
10x14. The Emotion Detection Automation
10x15. The Locomotion Reverberation
10x16. The Allowance Evaporation
10x17. The Comic-Con Conundrum
10x18. The Escape Hatch Identification
10x19. The Collaboration Fluctuation
10x20. The Recollection Dissipation
10x21. The Separation Agitation
10x22. The Cognition Regeneration
10x23. The Gyroscopic Collapse
10x24. The Long Distance Dissonance
Якість:
Відео:
кодек:
розмір кадру: 1920 х 1080
бітрейт: 11000 кб/с

Аудіо # 1:
мова: українська
переклад: багатоголосий закадровий
кодек: 2.0
бітрейт: 192 кб/с

Аудіо # 2:
мова: англійська
переклад: оригінал
кодек: 5.1
бітрейт: 640 кб/с

Субтитри:
мова: англійська
тип: програмні (м'які)
формат: *.srt
Info
General
Unique ID : 165608678097862352866109689731201157010 (0x7C97123B77BEF5890DF924B69A08C792)
Complete name : The Big Bang Theory. S10E01 (2016) [Ukr,Eng] 1080p [Hurtom].
Format :
Format version : Version 4
File size : 1.80 GiB
Duration : 21 min 52 s
Overall bit rate : 11.8 Mb/s
Movie name : 10x01. The Conjugal Conjecture
Encoded date : UTC 2019-02-06 17:29:14
Writing application : v30.1.0 ('Forever And More') 64-bit
Writing library : libebml v1.3.6 + v1.4.9

Video
ID : 1
Format : AVC
Format/Info : Advanced Video Codec
Format profile : [email protected]
Format settings : CABAC / 4 Ref Frames
Format settings, CABAC : Yes
Format settings, ReFrames : 4 frames
Codec ID : V_MPEG4/ISO/AVC
Duration : 21 min 52 s
Bit rate : 11.0 Mb/s
Width : 1 920 pixels
Height : 1 080 pixels
Display aspect ratio : 16:9
Frame rate mode : Constant
Frame rate : 23.976 (24000/1001) FPS
Color space : YUV
Chroma subsampling : 4:2:0
Bit depth : 8 bits
Scan type : Progressive
Bits/(Pixel*Frame) : 0.221
Stream size : 1.68 GiB (93%)
Title : AVC 1920*1080 @ 11 Mbps
Writing library : core 152 r2854 e9a5903
Encoding settings : cabac=1 / ref=4 / deblock=1:-3:-3 / analyse=0x3:0x133 / me=umh / subme=11 / psy=1 / psy_rd=1,00:0,15 / mixed_ref=1 / me_range=48 / chroma_me=1 / trellis=2 / 8x8dct=1 / cqm=0 / deadzone=21,11 / fast_pskip=0 / chroma_qp_offset=-3 / threads=12 / lookahead_threads=2 / sliced_threads=0 / nr=0 / decimate=1 / interlaced=0 / bluray_compat=0 / constrained_intra=0 / bframes=8 / b_pyramid=2 / b_adapt=2 / b_bias=0 / direct=3 / weightb=1 / open_gop=0 / weightp=2 / keyint=240 / keyint_min=24 / scenecut=40 / intra_refresh=0 / rc_lookahead=60 / rc=2pass / mbtree=0 / bitrate=11000 / ratetol=1,0 / qcomp=0,60 / qpmin=0 / qpmax=69 / qpstep=4 / cplxblur=20,0 / qblur=0,5 / vbv_maxrate=62500 / vbv_bufsize=78125 / nal_hrd=none / filler=0 / ip_ratio=1,40 / pb_ratio=1,30 / aq=1:1,00
Language : Multiple languages
Default : Yes
Forced : Yes
Color range : Limited
Color primaries : BT.709
Transfer characteristics : BT.709
Matrix coefficients : BT.709

Audio #1
ID : 2
Format : AC-3
Format/Info : Audio Coding 3
Commercial name : Dolby Digital
Codec ID : A_AC3
Duration : 21 min 52 s
Bit rate mode : Constant
Bit rate : 192 kb/s
Channel(s) : 2 channels
Channel layout : L R
Sampling rate : 48.0 kHz
Frame rate : 31.250 FPS (1536 SPF)
Bit depth : 16 bits
Compression mode : Lossy
Stream size : 30.0 MiB (2%)
Title : 2.0 @ 192 Kbps # Paramount COMEDY
Language : Ukrainian
Service kind : Complete Main
Default : Yes
Forced : Yes

Audio #2
ID : 3
Format : AC-3
Format/Info : Audio Coding 3
Commercial name : Dolby Digital
Codec ID : A_AC3
Duration : 21 min 52 s
Bit rate mode : Constant
Bit rate : 640 kb/s
Channel(s) : 6 channels
Channel layout : L R C LFE Ls Rs
Sampling rate : 48.0 kHz
Frame rate : 31.250 FPS (1536 SPF)
Bit depth : 16 bits
Compression mode : Lossy
Stream size : 100 MiB (5%)
Title : 5.1 @ 640 Kbps
Language : English
Service kind : Complete Main
Default : No
Forced : No

Text
ID : 4
Format : UTF-8
Codec ID : S_TEXT/UTF8
Codec ID/Info : UTF-8 Plain Text
Duration : 21 min 50 s
Bit rate : 95 b/s
Count of elements : 389
Stream size : 15.2 KiB (0%)
Title : English
Language : English
Default : No
Forced : No

Menu
00:00:00.000 : :Chapter 1
00:01:11.113 : :Chapter 2
00:02:36.198 : :Chapter 3
00:11:59.177 : :Chapter 4
00:19:35.383 : :Chapter 5
00:21:24.575 : :Chapter 6
Скріншоти







Джерело:
Особиста оцінка: 10 - без зайвих вагань рекомендую всім!



Не забуваємо тиснути "Дякую"!


Срібний реліз (на рейтинг впливає 50% завантаженого)
 Трекер:    Зареєстрований   

Завантажити / скачати серіал українською



відео для новачків



 Зареєстрований:   2019-02-07 09:47
 Розмір:   39.03 GB 
 Оцінка серіалу:   10/10 (Голосів: 14)
   
Argentum 
VIP


З нами з: 25.09.11
Востаннє: 05.12.20
Повідомлень: 263

2019-02-07 09:45  
Роздачу оновлено. Усунено проблему з відтворенням субтитрів та виправлено помилки. Прохання перезавантажити торрент.

Ваш часовий пояс: GMT + 2 Години

Нова тема   Відповісти