Кохання не за розміром (Up for Love) / Un homme à la hauteur (2016) 1080p 2xUkr/Fre | Sub Fre

Нові коментарі

Нова тема   Відповісти
Автор Повідомлення
staf777 
Відео Гуртом - підтримка та поширення
Відео Гуртом - підтримка та поширення


З нами з: 16.11.16
Востаннє: 22.04.19
Повідомлень: 2283

2019-01-31 12:59  
Кохання не за розміром / Un homme à la hauteur (2016) 1080p 2xUkr/Fre | Sub Fre




Жанр: комедія, романтичний
Країна: Франція



Кінокомпанія: VVZ Productions, Gaumont, M6 Films, Canal+, Ciné+, Scope Pictures, Creative Andina
Режисер: Лоран Тірар
Актори: Жан Дюжарден, Вірджинія Ефіра, Седрік Кан, Сезар Домбой, Елеа Клер, Міріам Текаіа

Сюжет:
Коли чарівна Діана (Вірджинія Ефіра) загубила телефон, вона була певна, що він не знайдеться. Але ввечері дівчині зателефонували додому, і приємний чоловічий голос повідомив про цінну знахідку. Чоловік запропонував зустрітися і повернути ґаджет. Зазвичай, щоб краще взнати людину, потрібно зустрітися з нею бодай кілька разів, але тут Діані з перших слів стало зрозуміло, що Александр (Жан Дюжарден) – саме так звали чоловіка – просто ідеальний. Делікатний, уважний і з прекрасним почуттям гумору. Із завмиранням серця Діана пішла на зустріч і побачила там чоловіка мало не наполовину нижчого від неї. Як же тепер бути? Забрати телефон і попрощатися? Але ж ні шарм, ані чарівність Александра нікуди не ділися!


Тривалість: 01:37:57
Якість: 1080p

Відео:
кодек:
розмір кадру: 1920x800
бітрейт: 10,6 Mб/с

Аудіо #1:
мова: українська
переклад: професійний дубльований | студія ААА-sound
кодек: 2.0 (стерео)
бітрейт: 192 кб/с
Інформація про дубляж:
Переклад: Олена Оксенич
Режисер дубляжу: Олександр Єфімов
Ролі дублювали: Катерина Буцька, Андрій Альохін, Андрій Федінчик, Дмитро Завадський, Юлія Перенчук, Ярослав Чорненький, Ірина Грей, Тетяна Зіновенко, Катерина Брайковська, Кирило Нікітенко, Олександр Єфімов та інші.

Фільм дубльовано студією ААА-sound у 2016 році на замовлення компанії "Вольга-Україна"
Аудіо # 2:
мова: українська
переклад: багатоголосий закадровий
кодек: 2.0 (стерео)
бітрейт: 192 кб/с

Аудіо # 3:
мова: французька
переклад: оригінал
кодек: 5.1
бітрейт: 640 кб/с

Субтитри:
мова: французька
тип: програмні (м'які)
формат: *.srt
Info
Код:
General
Unique ID                   : 120847314776255072017156506112164580847 (0x5AEA58A20BFB3919706E774AAE634DEF)
Complete name               : S:\» HD українською » Фільми в HD\Комедія\Un homme à la hauteur (2016) 1080p [2xUkr][Fre] [Hurtom].
Format                      :
Format version              : Version 4
File size                   : 7.94 GiB
Duration                    : 1 h 37 min
Overall bit rate            : 11.6 Mb/s
Movie name                  : Un homme à la hauteur (2016) 1080p [2xUkr][Fre] [Hurtom]
Encoded date                : UTC 2019-01-31 11:35:08
Writing application         : v30.1.0 ('Forever And More') 64-bit
Writing library             : libebml v1.3.6 + v1.4.9
Cover                       : Yes
Attachments                 : cover.jpg

Video
ID                          : 1
Format                      : AVC
Format/Info                 : Advanced Video Codec
Format profile              : [email protected]
Format settings             : CABAC / 5 Ref Frames
Format settings, CABAC      : Yes
Format settings, ReFrames   : 5 frames
Codec ID                    : V_MPEG4/ISO/AVC
Duration                    : 1 h 37 min
Bit rate                    : 10.6 Mb/s
Width                       : 1 920 pixels
Height                      : 800 pixels
Display aspect ratio        : 2.40:1
Frame rate mode             : Constant
Frame rate                  : 24.000 FPS
Color space                 : YUV
Chroma subsampling          : 4:2:0
Bit depth                   : 8 bits
Scan type                   : Progressive
Bits/(Pixel*Frame)          : 0.287
Stream size                 : 7.24 GiB (91%)
Title                       : Un.homme.à.la.Hauteur ***селезень***
Writing library             : core 146 r2538 121396c
Encoding settings           : cabac=1 / ref=5 / deblock=1:-3:-3 / analyse=0x3:0x133 / me=umh / subme=11 / psy=1 / psy_rd=1.00:0.00 / mixed_ref=1 / me_range=32 / chroma_me=1 / trellis=2 / 8x8dct=1 / cqm=0 / deadzone=21,11 / fast_pskip=0 / chroma_qp_offset=-2 / threads=12 / lookahead_threads=1 / sliced_threads=0 / nr=0 / decimate=0 / interlaced=0 / bluray_compat=0 / constrained_intra=0 / bframes=8 / b_pyramid=2 / b_adapt=2 / b_bias=0 / direct=3 / weightb=1 / open_gop=0 / weightp=2 / keyint=240 / keyint_min=23 / scenecut=40 / intra_refresh=0 / rc_lookahead=0 / rc=2pass / mbtree=0 / bitrate=10587 / ratetol=1.0 / qcomp=0.70 / qpmin=0 / qpmax=69 / qpstep=4 / cplxblur=20.0 / qblur=0.5 / vbv_maxrate=50000 / vbv_bufsize=62500 / nal_hrd=none / filler=0 / ip_ratio=1.20 / pb_ratio=1.20 / aq=3:0.80
Language                    : French
Default                     : Yes
Forced                      : No

Audio #1
ID                          : 2
Format                      : AC-3
Format/Info                 : Audio Coding 3
Commercial name             : Dolby Digital
Codec ID                    : A_AC3
Duration                    : 1 h 37 min
Bit rate mode               : Constant
Bit rate                    : 192 kb/s
Channel(s)                  : 2 channels
Channel layout              : L R
Sampling rate               : 48.0 kHz
Frame rate                  : 31.250 FPS (1536 SPF)
Bit depth                   : 16 bits
Compression mode            : Lossy
Stream size                 : 134 MiB (2%)
Title                       : Dub [AAASound], 2.0 [stereo] 192 Kbps
Language                    : Ukrainian
Service kind                : Complete Main
Default                     : Yes
Forced                      : Yes

Audio #2
ID                          : 3
Format                      : AC-3
Format/Info                 : Audio Coding 3
Commercial name             : Dolby Digital
Codec ID                    : A_AC3
Duration                    : 1 h 37 min
Bit rate mode               : Constant
Bit rate                    : 192 kb/s
Channel(s)                  : 2 channels
Channel layout              : L R
Sampling rate               : 48.0 kHz
Frame rate                  : 31.250 FPS (1536 SPF)
Bit depth                   : 16 bits
Compression mode            : Lossy
Stream size                 : 134 MiB (2%)
Title                       : MVO [Volia CINE+] 2.0 [stereo] 192 Kbps
Language                    : Ukrainian
Service kind                : Complete Main
Default                     : No
Forced                      : No

Audio #3
ID                          : 4
Format                      : AC-3
Format/Info                 : Audio Coding 3
Commercial name             : Dolby Digital
Codec ID                    : A_AC3
Duration                    : 1 h 37 min
Bit rate mode               : Constant
Bit rate                    : 640 kb/s
Channel(s)                  : 6 channels
Channel layout              : L R C LFE Ls Rs
Sampling rate               : 48.0 kHz
Frame rate                  : 31.250 FPS (1536 SPF)
Bit depth                   : 16 bits
Compression mode            : Lossy
Stream size                 : 448 MiB (6%)
Language                    : French
Service kind                : Complete Main
Default                     : No
Forced                      : No

Text
ID                          : 5
Format                      : UTF-8
Codec ID                    : S_TEXT/UTF8
Codec ID/Info               : UTF-8 Plain Text
Duration                    : 1 h 37 min
Bit rate                    : 60 b/s
Count of elements           : 1527
Stream size                 : 43.7 KiB (0%)
Title                       : Full
Language                    : French
Default                     : No
Forced                      : No

Menu
00:00:00.000                : en:00:00:00.000
00:04:33.190                : en:00:04:33.190
00:07:24.235                : en:00:07:24.235
00:12:07.435                : en:00:12:07.435
00:16:39.790                : en:00:16:39.790
00:22:47.616                : en:00:22:47.616
00:24:59.623                : en:00:24:59.623
00:30:18.233                : en:00:30:18.233
00:35:29.794                : en:00:35:29.794
00:41:32.990                : en:00:41:32.990
00:45:20.051                : en:00:45:20.051
00:51:35.676                : en:00:51:35.676
00:54:11.039                : en:00:54:11.039
00:57:40.123                : en:00:57:40.123
01:04:18.521                : en:01:04:18.521
01:09:18.988                : en:01:09:18.988
01:12:46.279                : en:01:12:46.279
01:18:07.391                : en:01:18:07.391
01:23:20.245                : en:01:23:20.245
01:27:34.749                : en:01:27:34.749
01:32:15.947                : en:01:32:15.947
01:36:40.461                : en:01:36:40.461
01:40:12.590                : en:01:40:12.590
01:43:14.814                : en:01:43:14.814




Підтримати купівлю інших фільмів можна тут.

Подяка пану AngryBirdsUA за доріжку №1 та пану Sando7 за запис доріжки №2.

Джерело:
Особиста оцінка: 0 - не дивився


 Трекер:    Зареєстрований   

Завантажити / скачати фільм українською



відео для новачків



 Зареєстрований:   2019-01-31 14:58
 Розмір:   7.94 GB 
 Оцінка фільму:   7.8/10 (Голосів: 4)
   
Ваш часовий пояс: GMT + 2 Години

Нова тема   Відповісти