Спенгліш - іспанська англійська / Spanglish (2004) Remux 1080p Ukr/Eng | Sub Eng

Нові коментарі

Нова тема   Відповісти
Останній раз роздавалося staf777 (2020-09-25)
Автор Повідомлення
staf777 
Відео Гуртом - підтримка та поширення
Відео Гуртом - підтримка та поширення


З нами з: 16.11.16
Востаннє: 25.09.20
Повідомлень: 4040

2019-01-31 12:54  
Спенгліш - іспанська англійська / Spanglish (2004) Remux 1080p Ukr/Eng | Sub Eng

Спенгліш - іспанська англійська / Spanglish (2004) Remux 1080p Ukr/Eng | Sub Eng


Жанр: комедія, драма, романтичний
Країна: США



Кінокомпанія: Columbia Pictures Corporation
Режисер: Джеймс Л. Брукс
Актори: Адам Сендлер, Теа Леоні, Паз Вега, Хлоріс Лічман, Шелбі Брюс

Сюжет:
Жінка з донькою емігрує з Мексики в Америку, де починає працювати домогосподаркою для заможної родини.


Тривалість: 02:11:07
Якість: Remux 1080p
Відео:
кодек:
розмір кадру: 1920x1080
бітрейт: 20900 кб/с

Аудіо # 1:
мова: українська
переклад: багатоголосий закадровий
кодек: 2.0
бітрейт:192 кб/с

Аудіо # 3:
мова: англійська
переклад: оригінал
кодек: -HD MA 5.1
бітрейт: 2087 кб/с

Субтитри:
мова: англійська
тип: програмні (м'які)
формат: *.srt
Info
General
Unique ID : 235315255144102487671196118302623490642 (0xB10811D2F6F2B13E49DE0321494F6252)
Complete name : S:\» HD українською » Фільми в HD\Комедія\Spanglish (2004) Remux 1080p [Ukr.Eng] [Sub Eng] [Hurtom].
Format :
Format version : Version 4
File size : 21.2 GiB
Duration : 2 h 11 min
Overall bit rate mode : Variable
Overall bit rate : 23.1 Mb/s
Movie name : Spanglish (2004) Remux 1080p [Ukr.Eng] [Sub Eng] [Hurtom]
Encoded date : UTC 2019-01-31 09:23:10
Writing application : v30.1.0 ('Forever And More') 64-bit
Writing library : libebml v1.3.6 + v1.4.9
Cover : Yes
Attachments : cover.jpg

Video
ID : 1
Format : AVC
Format/Info : Advanced Video Codec
Format profile : [email protected]
Format settings : CABAC / 2 Ref Frames
Format settings, CABAC : Yes
Format settings, ReFrames : 2 frames
Format settings, GOP : M=1, N=10
Codec ID : V_MPEG4/ISO/AVC
Duration : 2 h 11 min
Bit rate mode : Variable
Bit rate : 20.9 Mb/s
Width : 1 920 pixels
Height : 1 080 pixels
Display aspect ratio : 16:9
Frame rate mode : Constant
Frame rate : 23.976 (24000/1001) FPS
Color space : YUV
Chroma subsampling : 4:2:0
Bit depth : 8 bits
Scan type : Progressive
Bits/(Pixel*Frame) : 0.420
Stream size : 19.1 GiB (90%)
Language : English
Default : Yes
Forced : Yes

Audio #1
ID : 2
Format : AC-3
Format/Info : Audio Coding 3
Commercial name : Dolby Digital
Codec ID : A_AC3
Duration : 2 h 11 min
Bit rate mode : Constant
Bit rate : 192 kb/s
Channel(s) : 2 channels
Channel layout : L R
Sampling rate : 48.0 kHz
Frame rate : 31.250 FPS (1536 SPF)
Bit depth : 16 bits
Compression mode : Lossy
Stream size : 180 MiB (1%)
Title : MVO-N
Language : Ukrainian
Service kind : Complete Main
Default : Yes
Forced : Yes

Audio #2
ID : 3
Format : XLL
Format/Info : Digital Theater Systems
Commercial name : -HD Master Audio
Codec ID : A_DTS
Duration : 2 h 11 min
Bit rate mode : Variable
Bit rate : 2 087 kb/s
Channel(s) : 6 channels
Channel layout : C L R Ls Rs LFE
Sampling rate : 48.0 kHz
Frame rate : 93.750 FPS (512 SPF)
Bit depth : 16 bits
Compression mode : Lossless
Stream size : 1.91 GiB (9%)
Language : English
Default : No
Forced : No

Text
ID : 4
Format : UTF-8
Codec ID : S_TEXT/UTF8
Codec ID/Info : UTF-8 Plain Text
Duration : 2 h 5 min
Bit rate : 52 b/s
Count of elements : 1408
Stream size : 48.5 KiB (0%)
Title : Full
Language : English
Default : No
Forced : No

Menu
00:00:00.000 : en:00:00:00.000
00:11:56.799 : en:00:11:56.799
00:20:03.452 : en:00:20:03.452
00:30:08.932 : en:00:30:08.932
00:40:02.400 : en:00:40:02.400
00:50:46.377 : en:00:50:46.377
00:59:31.193 : en:00:59:31.193
01:10:11.958 : en:01:10:11.958
01:19:33.394 : en:01:19:33.394
01:29:26.361 : en:01:29:26.361
01:40:32.318 : en:01:40:32.318
01:48:52.443 : en:01:48:52.443
02:00:35.728 : en:02:00:35.728
02:06:34.670 : en:02:06:34.670


Джерело: & -=DoMiNo=-
Особиста оцінка: 0 - не дивився
ЗАЛИШАЙТЕСЬ ЯКОМОГА ДОВШЕ НА РОЗДАЧІ!

СКАЧАВ САМ - ДАЙ СКАЧАТИ ІНШИМ



Золотий реліз (завантажене не впливає на рейтинг)
 Трекер:    Зареєстрований   

Завантажити / скачати фільм українською



відео для новачків



 Зареєстрований:   2019-01-31 13:02
 Розмір:   21.2 GB 
 Оцінка фільму:   7.4/10 (Голосів: 7)
   
Ваш часовий пояс: GMT + 2 Години

Нова тема   Відповісти