Дитя пітьми / Orphan (2009) 720p Ukr/Eng | Sub Ukr/Eng

Нові коментарі

Нова тема   Відповісти
Автор Повідомлення
staf777 
Відео Гуртом - підтримка та поширення
Відео Гуртом - підтримка та поширення


З нами з: 16.11.16
Востаннє: 20.04.19
Повідомлень: 2270

2019-01-31 10:39  
Дитя пітьми / Orphan (2009) 720p Ukr/Eng | Sub Ukr/Eng

Дитя пітьми / Orphan (2009) 720p Ukr/Eng | Sub Ukr/Eng


Жанр: жахи, трилер, детектив
Країна: США, Німеччина, Канада, Франція



Кінокомпанія: Warner Bros. Pictures, Dark Castle Entertainment, DCP Orphan Productions, Don Carmody Productions, Studio Babelsberg Motion Pictures GmbH, Studio Canal, Appian Way
Режисер: Жауме Серра
Актори: Віра Фарміґа, Пітер Сарсгаард, Ізабель Фюрман, Сі Сі Ейч Паундер, Джиммі Беннет, Марго Мартіндейл, Карел Роден, Аріана Енджинір, Розмарі Дансмор...

Сюжет:
Подружня пара, яка зовсім нещодавно втратила немовля, удочеряє дев'ятирічну дівчинку, яка виявляється зовсім не такою милою і невинною, як це могло здатися на перший погляд.


Тривалість: 02:03:05
Якість: 720p
Відео:
кодек:
розмір кадру: 1280x720
бітрейт: 4317 кб/с

Аудіо # 1:
мова: українська
переклад: багатоголосий закадровий
кодек: 2.0
бітрейт: 192 кб/с

Аудіо # 2:
мова: англійська
переклад: оригінал
кодек: 5.1
бітрейт: 384 кб/с

Субтитри # 1:
мова: українська
тип: програмні (м'які)
формат: *.srt

Субтитри # 2-3:
мова: англійська
тип: програмні (м'які)
формат: *.srt
Info
General
Unique ID : 209898961511378272940312039090235507261 (0x9DE911CC866A42692435F5BE78B6023D)
Complete name : S:\» HD українською » Фільми в HD\Жахи\Orphan (2009) 720p Ukr Eng [Hurtom].
Format :
Format version : Version 4
File size : 4.21 GiB
Duration : 2 h 3 min
Overall bit rate : 4 893 kb/s
Movie name : Orphan (2009) 720p Ukr | Eng [Hurtom]
Encoded date : UTC 2019-02-06 08:33:24
Writing application : v30.1.0 ('Forever And More') 64-bit
Writing library : libebml v1.3.6 + v1.4.9
Cover : Yes
Attachments : cover.jpg

Video
ID : 1
Format : AVC
Format/Info : Advanced Video Codec
Format profile : [email protected]
Format settings : CABAC / 9 Ref Frames
Format settings, CABAC : Yes
Format settings, ReFrames : 9 frames
Codec ID : V_MPEG4/ISO/AVC
Duration : 2 h 3 min
Bit rate : 4 317 kb/s
Width : 1 280 pixels
Height : 720 pixels
Display aspect ratio : 16:9
Frame rate mode : Constant
Frame rate : 23.976 (24000/1001) FPS
Color space : YUV
Chroma subsampling : 4:2:0
Bit depth : 8 bits
Scan type : Progressive
Bits/(Pixel*Frame) : 0.195
Stream size : 3.71 GiB (88%)
Writing library : core 146 r2538 121396c
Encoding settings : cabac=1 / ref=9 / deblock=1:-3:-3 / analyse=0x3:0x133 / me=umh / subme=11 / psy=1 / psy_rd=1.00:0.00 / mixed_ref=1 / me_range=32 / chroma_me=1 / trellis=2 / 8x8dct=1 / cqm=0 / deadzone=21,11 / fast_pskip=0 / chroma_qp_offset=-2 / threads=12 / lookahead_threads=3 / sliced_threads=0 / nr=0 / decimate=0 / interlaced=0 / bluray_compat=0 / constrained_intra=0 / bframes=9 / b_pyramid=2 / b_adapt=2 / b_bias=0 / direct=3 / weightb=1 / open_gop=0 / weightp=2 / keyint=240 / keyint_min=23 / scenecut=40 / intra_refresh=0 / rc=2pass / mbtree=0 / bitrate=4317 / ratetol=1.0 / qcomp=0.60 / qpmin=0 / qpmax=69 / qpstep=4 / cplxblur=20.0 / qblur=0.5 / ip_ratio=1.40 / pb_ratio=1.30 / aq=3:0.90
Language : English
Default : Yes
Forced : No

Audio #1
ID : 2
Format : AC-3
Format/Info : Audio Coding 3
Commercial name : Dolby Digital
Codec ID : A_AC3
Duration : 2 h 2 min
Bit rate mode : Constant
Bit rate : 192 kb/s
Channel(s) : 2 channels
Channel layout : L R
Sampling rate : 48.0 kHz
Frame rate : 31.250 FPS (1536 SPF)
Bit depth : 16 bits
Compression mode : Lossy
Stream size : 169 MiB (4%)
Title : [UA-MVO]
Language : Ukrainian
Service kind : Complete Main
Default : Yes
Forced : Yes

Audio #2
ID : 3
Format : AC-3
Format/Info : Audio Coding 3
Commercial name : Dolby Digital
Codec ID : A_AC3
Duration : 2 h 3 min
Bit rate mode : Constant
Bit rate : 384 kb/s
Channel(s) : 6 channels
Channel layout : L R C LFE Ls Rs
Sampling rate : 48.0 kHz
Frame rate : 31.250 FPS (1536 SPF)
Bit depth : 16 bits
Compression mode : Lossy
Stream size : 338 MiB (8%)
Language : English
Service kind : Complete Main
Default : No
Forced : No

Text #1
ID : 4
Format : UTF-8
Codec ID : S_TEXT/UTF8
Codec ID/Info : UTF-8 Plain Text
Duration : 1 h 55 min
Bit rate : 58 b/s
Count of elements : 1093
Stream size : 48.9 KiB (0%)
Language : Ukrainian
Default : No
Forced : No

Text #2
ID : 5
Format : UTF-8
Codec ID : S_TEXT/UTF8
Codec ID/Info : UTF-8 Plain Text
Duration : 2 h 2 min
Bit rate : 39 b/s
Count of elements : 1047
Stream size : 35.7 KiB (0%)
Title : full
Language : English
Default : No
Forced : No

Text #3
ID : 6
Format : UTF-8
Codec ID : S_TEXT/UTF8
Codec ID/Info : UTF-8 Plain Text
Duration : 2 h 2 min
Bit rate : 42 b/s
Count of elements : 1149
Stream size : 38.2 KiB (0%)
Title : SDH
Language : English
Default : No
Forced : No

Menu
00:00:00.000 : :Chapter 01
00:05:00.000 : :Chapter 02
00:10:00.000 : :Chapter 03
00:15:00.000 : :Chapter 04
00:20:00.000 : :Chapter 05
00:25:00.000 : :Chapter 06
00:30:00.000 : :Chapter 07
00:35:00.000 : :Chapter 08
00:40:00.000 : :Chapter 09
00:45:00.000 : :Chapter 10
00:50:00.000 : :Chapter 11
00:55:00.000 : :Chapter 12
01:00:00.000 : :Chapter 13
01:05:00.000 : :Chapter 14
01:10:00.000 : :Chapter 15
01:15:00.000 : :Chapter 16
01:20:00.000 : :Chapter 17
01:25:00.000 : :Chapter 18
01:30:00.000 : :Chapter 19
01:35:00.000 : :Chapter 20
01:40:00.000 : :Chapter 21
01:45:00.000 : :Chapter 22
01:50:00.000 : :Chapter 23
01:55:00.000 : :Chapter 24
02:00:00.000 : :Chapter 25







Джерело: & Інше
Особиста оцінка: 8 - мені сподобалося
Дитя пітьми / Orphan (2009) 720p Ukr/Eng | Sub Ukr/Eng Дитя пітьми / Orphan (2009) 720p Ukr/Eng | Sub Ukr/Eng


 Трекер:    Зареєстрований   

Завантажити / скачати фільм українською



відео для новачків



 Зареєстрований:   2019-02-06 11:50
 Розмір:   4.21 GB 
 Оцінка фільму:   7.4/10 (Голосів: 5)
   
Інші релізи
   Дитя пітьми / Orphan (2009) 1080p H.265 Ukr/Eng | Sub Ukr/Eng -Star-Lord-  1 / 0   5.65 GB   2018-12-08 20:00 
   Дитя пітьми / Orphan (2009) Remux 1080p Ukr/Eng | Sub Ukr/Eng IronBee  0 / 0   18.15 GB   2018-03-01 09:59 
   Дитя пітьми / Orphan (2009) 1080p Ukr/Eng | Sub Ukr/Eng staf777  2 / 0   8.87 GB   2018-01-18 23:21 
   Дитя пітьми / Orphan (2009) Ukr | Sub Ukr/Eng patriot2305  2 / 0   1.29 GB   2012-07-12 20:28 
   Дитя пітьми / Orphan (2009) Ukr/Eng | Sub Ukr/Eng igrik09  1 / 1   2.35 GB   2012-07-12 20:02 
   Дитя пітьми / Orphan (2009) AVC Ukr/Eng | Sub Ukr/Eng igrik09  3 / 1   2.56 GB   2012-07-10 20:52 
alex2 
Свій


З нами з: 01.02.12
Востаннє: 18.04.19
Повідомлень: 131

2019-01-31 13:36  
в свій час зайшовHappy якось передивлявся навіть.
bot 
робот


З нами з: 30.09.07
Востаннє: 26.05.05
Повідомлень: 21218

2019-02-06 11:50  
Тему перенесено з Анонси релізів до форуму Фільми в HD


staf777

Ваш часовий пояс: GMT + 2 Години

Нова тема   Відповісти