В ночі / Into the Night (1985) 720p Ukr/Eng | Sub Eng

Нові коментарі

Нова тема   Відповісти
Автор Повідомлення
Anonymous 







2019-01-30 16:57  
В ночі / Into the Night (1985) 720p Ukr/Eng | Sub Eng

В ночі / Into the Night (1985) 720p Ukr/Eng | Sub Eng


Жанр: драма, бойовик, комедія, нуар
Країна: США



Кінокомпанія: Universal Pictures
Режисер: Джон Лендіс / John Landis
Актори: Мішель Пфайффер / Michelle Pfeiffer, Джефф Голдблюм / Jeff Goldblum, Девід Боуї / David Bowie, Брюс Маꥳлл / Bruce McGill, Джон Лендіс / John Landis, Джонатан Деммі / Jonathan Demme, Джонатан Лінн / Jonathan Lynn, Девід Кроненберг / David Cronenberg, Ден Ейкройд / Dan Aykroyd, Деніел Петрі / Daniel Petrie, Ірен Папас / Irene Papas, Карл Готтліб / Carl Gottlieb, Кармен Ардженціано / Carmen Argenziano, Колін Хіггінс / Colin Higgins, Кетрін Гарролд / Kathryn Harrold, Лоуренс Каздан / Lawrence Kasdan

Сюжет:
Коли два незнайомці виявляються вплутаним в міжнародну інтригу в самому серці ночі в Лос-Анджелесі, може статися все що завгодно... І відбувається. Як у цьому фільмі в жанрі «нуар» режисера Джона Лендіса. Ед Окін (Джефф Голдблюм) страждає від безсоння, його обманює дружина, і в нього нудна робота. Його шанси урізноманітнити життя виглядали безнадійними, поки загадкова блондинка Даяна (Мішель Пфайффер) не звалилася на капот його автомобіля. І в цей момент прийшла черга Еда пережити пригоду і любовний роман, бо Даяна залучає його до захоплюючого і вбивчого полювання, в якому здобиччю стануть або долари, або смерть.


Тривалість: 01:54:56
Якість: 720p
Відео:
кодек:
розмір кадру: 1280х694
бітрейт: 4868 кб/с

Аудіо # 1:
мова: українська
переклад: двоголосий закадровий
кодек: 2.0
бітрейт: 224 кб/с

Аудіо # 2:
мова: англійська
переклад: оригінал
кодек: 2.0
бітрейт: 192 кб/с

Субтитри:
мова: англійська
тип: програмні (м'які)
формат: *.srt
Info
General
Unique ID : 199380598702998413074281563051695651117 (0x95FF4E7938BF9F5AA71C8F206F39B92D)
Format :
Format version : Version 4
File size : 4.24 GiB
Duration : 1 h 54 min
Overall bit rate : 5 283 kb/s
Encoded date : UTC 2019-01-30 14:47:17
Writing application : v6.1.0 ('Old Devil') built on Mar 4 2013 09:10:42
Writing library : libebml v1.3.0 + v1.4.0

Video
ID : 1
Format : AVC
Format/Info : Advanced Video Codec
Format profile : [email protected]
Format settings : CABAC / 9 Ref Frames
Format settings, CABAC : Yes
Format settings, RefFrames : 9 frames
Codec ID : V_MPEG4/ISO/AVC
Duration : 1 h 54 min
Bit rate : 4 868 kb/s
Width : 1 280 pixels
Height : 694 pixels
Display aspect ratio : 1.85:1
Frame rate mode : Constant
Frame rate : 23.976 (24000/1001) FPS
Color space : YUV
Chroma subsampling : 4:2:0
Bit depth : 8 bits
Scan type : Progressive
Bits/(Pixel*Frame) : 0.229
Stream size : 3.82 GiB (90%)
Writing library : core 146 r2538 121396c
Encoding settings : cabac=1 / ref=9 / deblock=1:-3:-3 / analyse=0x3:0x133 / me=umh / subme=11 / psy=1 / psy_rd=1.00:0.10 / mixed_ref=1 / me_range=32 / chroma_me=1 / trellis=2 / 8x8dct=1 / cqm=0 / deadzone=21,11 / fast_pskip=0 / chroma_qp_offset=-3 / threads=12 / lookahead_threads=3 / sliced_threads=0 / nr=0 / decimate=0 / interlaced=0 / bluray_compat=0 / constrained_intra=0 / bframes=10 / b_pyramid=2 / b_adapt=2 / b_bias=0 / direct=3 / weightb=1 / open_gop=0 / weightp=2 / keyint=240 / keyint_min=23 / scenecut=40 / intra_refresh=0 / rc=2pass / mbtree=0 / bitrate=4868 / ratetol=1.0 / qcomp=0.60 / qpmin=0 / qpmax=69 / qpstep=4 / cplxblur=20.0 / qblur=0.5 / ip_ratio=1.40 / pb_ratio=1.30 / aq=3:0.90
Language : English
Default : Yes
Forced : No

Audio #1
ID : 2
Format : AC-3
Format/Info : Audio Coding 3
Commercial name : Dolby Digital
Codec ID : A_AC3
Duration : 1 h 54 min
Bit rate mode : Constant
Bit rate : 224 kb/s
Channel(s) : 2 channels
Channel layout : L R
Sampling rate : 48.0 kHz
Frame rate : 31.250 FPS (1536 SPF)
Bit depth : 16 bits
Compression mode : Lossy
Delay relative to video : 964 ms
Stream size : 184 MiB (4%)
Title : UKR (ICTV)
Language : Ukrainian
Service kind : Complete Main
Default : Yes
Forced : Yes

Audio #2
ID : 3
Format : AC-3
Format/Info : Audio Coding 3
Commercial name : Dolby Digital
Codec ID : A_AC3
Duration : 1 h 54 min
Bit rate mode : Constant
Bit rate : 192 kb/s
Channel(s) : 2 channels
Channel layout : L R
Sampling rate : 48.0 kHz
Frame rate : 31.250 FPS (1536 SPF)
Bit depth : 16 bits
Compression mode : Lossy
Stream size : 158 MiB (4%)
Title : ENG
Language : English
Service kind : Complete Main
Default : No
Forced : No

Text
ID : 4
Format : UTF-8
Codec ID : S_TEXT/UTF8
Codec ID/Info : UTF-8 Plain Text
Language : English
Default : No
Forced : No

Menu
00:00:00.000 : :00:00:00.000
00:05:24.658 : :00:05:24.658
00:13:47.994 : :00:13:47.994
00:17:35.429 : :00:17:35.429
00:25:56.430 : :00:25:56.430
00:31:45.987 : :00:31:45.987
00:39:25.029 : :00:39:25.029
00:46:44.802 : :00:46:44.802
00:53:37.089 : :00:53:37.089
01:01:58.256 : :01:01:58.256
01:09:59.862 : :01:09:59.862
01:14:59.203 : :01:14:59.203
01:19:56.750 : :01:19:56.750
01:28:16.291 : :01:28:16.291
01:36:52.724 : :01:36:52.724
01:43:09.767 : :01:43:09.767
Скріншоти





За звукову доріжку подяка п.: Merdiff, robotron005, Lan
Особиста подяка пану denixx за надану матеріальну допомогу на підтримку цього і майбутніх релізів.
Джерело:


Срібний реліз (на рейтинг впливає 50% завантаженого)
 Трекер:    Зареєстрований   

Завантажити / скачати фільм українською



відео для новачків



 Зареєстрований:   2019-01-30 16:57
 Розмір:   4.24 GB 
 Оцінка фільму:   8.2/10 (Голосів: 6)
   
Інші релізи
   В ночі / Into the Night (1985) Remux 1080p Ukr/Eng | Sub Eng MakRA  2 / 0   27.19 GB   2019-05-29 23:53 
   В ночі / Into the Night (1985) Ukr/Eng Lan  1 / 2   1.59 GB   2011-12-04 17:32 
MakRA 
VIP


З нами з: 10.11.18
Востаннє: 12.12.19
Повідомлень: 600

2019-01-30 17:15  
Ремукс не буде? А то в мене запланований саме)
Anonymous 







2019-01-30 17:29  
MakRA
Не буде. Роби

romasik11 
Новенький


З нами з: 21.09.13
Востаннє: 17.11.19
Повідомлень: 4

2019-02-01 21:45  
Вночі пишеться разом.
MakRA 
VIP


З нами з: 10.11.18
Востаннє: 12.12.19
Повідомлень: 600

2019-02-02 21:25  
romasik11
Все правильно! Не вночІ. а в нОчі.

Ваш часовий пояс: GMT + 2 Години

Нова тема   Відповісти