22 милі / Mile 22 (2018) 1080p Ukr/Eng | Sub Eng

Нові коментарі

Нова тема   Відповісти
Автор Повідомлення
staf777 
Відео Гуртом - підтримка та поширення
Відео Гуртом - підтримка та поширення


З нами з: 16.11.16
Востаннє: 18.04.19
Повідомлень: 2258

2019-01-30 13:13  
22 милі / Mile 22 (2018) 1080p Ukr/Eng | Sub Eng

22 милі / Mile 22 (2018) 1080p Ukr/Eng | Sub Eng


Жанр: бойовик, трилер
Країна: США



Кінокомпанія: Film 44
Режисер: Пітер Берґ
Актори: Марк Волберґ, Лорен Коен, Ронда Роузі, Джон Малковіч, Іко Увайс, Пітер Берґ, Пурна Джаґаннатан, Сала Бейкер, Террі Кінні, Сем Медіна та інші

Сюжет:
У центрі сюжету – Джеймс Сільва. Він агент спеціального загону, для якого не існує задач, які вони не могли б виконати. Їх називають Привиди, бо жодні документи не фіксують їхнього існування. Привидів залучають там, де усі відомі методи не спрацювали. У Індонезії влада погрузла у корупції та злочинності. Місцевий поліцейський має беззаперечні докази порушень закону високопосадовцями. Цінного свідка потрібно якнайшвидше вивезти з країни, аби він міг дати свідчення. Лічені милі до аеропорту, звідки злітатиме секретний борт з цінним пасажиром, стануть найважчим шляхом, який доводилося здолати Джеймсу Сільві.


Тривалість: 01:34:40
Якість: 1080p
Відео:
кодек:
розмір кадру: 1920x800
бітрейт: 16.0 Mб/с

Аудіо # 1:
мова: українська
переклад: професійний дубльований| студія AAA-Sound
кодек: 2.0 [stereo]
бітрейт: 192 кб/с

Аудіо # 2:
мова: англійська
переклад: оригінал
кодек: 5.1
бітрейт: 640 кб/с

Субтитри # 1-2:
мова: англійська
тип: програмні (м'які)
формат: *.srt
Info
General
Unique ID : 70786118293550997360623033544334069594 (0x3540E915AA8697917143DF3F7CEF4F5A)
Complete name : S:\» HD українською » Фільми в HD\Бойовик\Mile 22 (2018) 1080p [Ukr.Eng] [Sub Eng] [Hurtom] .
Format :
Format version : Version 4
File size : 11.1 GiB
Duration : 1 h 34 min
Overall bit rate : 16.8 Mb/s
Movie name : Mile 22 (2018) 1080p [Ukr.Eng] [Sub Eng] [Hurtom]
Encoded date : UTC 2019-01-30 09:51:04
Writing application : v30.1.0 ('Forever And More') 64-bit
Writing library : libebml v1.3.6 + v1.4.9
Cover : Yes
Attachments : cover

Video
ID : 1
Format : AVC
Format/Info : Advanced Video Codec
Format profile : [email protected]
Format settings : CABAC / 5 Ref Frames
Format settings, CABAC : Yes
Format settings, ReFrames : 5 frames
Codec ID : V_MPEG4/ISO/AVC
Duration : 1 h 34 min
Bit rate : 16.0 Mb/s
Width : 1 920 pixels
Height : 800 pixels
Display aspect ratio : 2.40:1
Frame rate mode : Constant
Frame rate : 23.976 (24000/1001) FPS
Color space : YUV
Chroma subsampling : 4:2:0
Bit depth : 8 bits
Scan type : Progressive
Bits/(Pixel*Frame) : 0.434
Stream size : 10.6 GiB (95%)
Writing library : core 152 r2851kMod ba24899
Encoding settings : cabac=1 / ref=5 / deblock=1:-3:-3 / analyse=0x3:0x133 / me=umh / subme=11 / psy=1 / fade_compensate=0.00 / psy_rd=1.05:0.00 / mixed_ref=1 / me_range=48 / chroma_me=1 / trellis=2 / 8x8dct=1 / cqm=0 / deadzone=21,11 / fast_pskip=0 / chroma_qp_offset=-2 / threads=24 / lookahead_threads=4 / sliced_threads=0 / nr=0 / decimate=0 / interlaced=0 / bluray_compat=0 / constrained_intra=0 / bframes=8 / b_pyramid=2 / b_adapt=2 / b_bias=0 / direct=3 / weightb=1 / open_gop=0 / weightp=2 / keyint=240 / keyint_min=2 / scenecut=40 / intra_refresh=0 / rc=crf / mbtree=0 / crf=17.5000 / qcomp=0.70 / qpmin=0 / qpmax=69 / qpstep=4 / ip_ratio=1.30 / pb_ratio=1.20 / aq=3:0.80
Language : English
Default : Yes
Forced : No

Audio #1
ID : 2
Format : AC-3
Format/Info : Audio Coding 3
Commercial name : Dolby Digital
Codec ID : A_AC3
Duration : 1 h 34 min
Bit rate mode : Constant
Bit rate : 192 kb/s
Channel(s) : 2 channels
Channel layout : L R
Sampling rate : 48.0 kHz
Frame rate : 31.250 FPS (1536 SPF)
Bit depth : 16 bits
Compression mode : Lossy
Stream size : 130 MiB (1%)
Title : 2.0 @ 192 kbps
Language : Ukrainian
Service kind : Complete Main
Default : Yes
Forced : Yes

Audio #2
ID : 3
Format : AC-3
Format/Info : Audio Coding 3
Commercial name : Dolby Digital
Codec ID : A_AC3
Duration : 1 h 34 min
Bit rate mode : Constant
Bit rate : 640 kb/s
Channel(s) : 6 channels
Channel layout : L R C LFE Ls Rs
Sampling rate : 48.0 kHz
Frame rate : 31.250 FPS (1536 SPF)
Bit depth : 16 bits
Compression mode : Lossy
Stream size : 433 MiB (4%)
Title : Original
Language : English
Service kind : Complete Main
Default : No
Forced : No

Text #1
ID : 4
Format : UTF-8
Codec ID : S_TEXT/UTF8
Codec ID/Info : UTF-8 Plain Text
Duration : 1 h 25 min
Bit rate : 69 b/s
Count of elements : 1403
Stream size : 43.3 KiB (0%)
Title : Full
Language : English
Default : No
Forced : No

Text #2
ID : 5
Format : UTF-8
Codec ID : S_TEXT/UTF8
Codec ID/Info : UTF-8 Plain Text
Duration : 1 h 26 min
Bit rate : 77 b/s
Count of elements : 1584
Stream size : 49.6 KiB (0%)
Title : SDH
Language : English
Default : No
Forced : No

Menu
00:00:00.000 : en:Chapter 1
00:12:06.225 : en:Chapter 2
00:24:27.925 : en:Chapter 3
00:36:23.139 : en:Chapter 4
00:48:42.211 : en:Chapter 5
01:04:11.264 : en:Chapter 6
01:17:49.665 : en:Chapter 7
01:27:14.604 : en:Chapter 8
Скріншоти




Подяка пану kryk-v.ya за доріжку та Electroz за синхронізацію.
Джерело: &
Особиста оцінка: 8 - мені сподобалося
22 милі / Mile 22 (2018) 1080p Ukr/Eng | Sub Eng 22 милі / Mile 22 (2018) 1080p Ukr/Eng | Sub Eng


 Трекер:    Зареєстрований   

Завантажити / скачати фільм українською



відео для новачків



 Зареєстрований:   2019-01-30 13:16
 Розмір:   11.12 GB 
 Оцінка фільму:   7.8/10 (Голосів: 13)
   
Інші релізи
   22 милі / Mile 22 (2018) AVC Ukr/Eng | Sub Eng 11FrYkT  12 / 4   1.7 GB   2018-11-22 20:50 
   22 милі / Mile 22 (2018) uafilm.tv  8 / 0   1.29 GB   2018-11-20 23:41 
   22 милі / Mile 22 (2018) 1080p H.265 Ukr/Eng | Sub Eng -Star-Lord-  12 / 4   4.05 GB   2018-11-20 22:33 
   22 милі / Mile 22 (2018) Remux 1080p Ukr/Eng | Sub Eng kryk-v.ya.  8 / 0   22.1 GB   2018-11-15 22:43 
   22 милі / Mile 22 (2018) 720p Ukr/Eng | Sub Eng радик  21 / 0   2.45 GB   2018-10-24 10:17 
lightinsight 
Свій


З нами з: 07.04.14
Востаннє: 17.04.19
Повідомлень: 109

2019-01-30 15:02  
Взагалі то "22га миля"
Ваш часовий пояс: GMT + 2 Години

Нова тема   Відповісти