Лускунчик і чотири королівства / The Nutcracker and the Four Realms (2018) UHD Remux 4K 2160p HDR H.265 Ukr/Eng | Sub Eng

Нові коментарі

Нова тема   Відповісти
Автор Повідомлення
Anonymous 







2019-01-28 22:04  
Лускунчик і чотири королівства / The Nutcracker and the Four Realms (2018) UHD Remux 4K 2160p HDR H.265 Ukr/Eng | Sub Eng

Лускунчик і чотири королівства / The Nutcracker and the Four Realms (2018) UHD Remux 4K 2160p HDR H.265 Ukr/Eng | Sub Eng


Жанр: пригоди, сімейний, фентезі
Країна: США





Кінокомпанія: Walt Disney Pictures, The Mark Gordon Company
Режисер: Лассе Халльстрем, Джо Джонстон
Актори: МакКензі Фой, Джейден Фовора-Найт, Кіра Найтлі, Хелен Міррен, Морган Фрімен, Місті Коупленд, Еухеніо Дербес, Річард Е. Грант, Метью Макфейден

Сюжет:
У найважчі часи тільки Різдво приносить щастя в кожен будинок. Тільки ось юна Клара не хоче нічому радіти. Але її хрещений батько Дроссельмейер зробив їй незвичайний подарунок, який дозволив дівчинці потрапити в захопливий паралельний світ. Клара потрапила у світ, створений її загиблою матір'ю. У цьому королівстві є кілька областей: Країна Снігів, Країна Квітів, Країна Солодощів. Пробувши трохи там, дівчина зустрічає солдата Філіпа та розуміє, що вона принцеса, а мати її – королева. А ще Клара дізналася, що всі ці землі в небезпеці, адже їх хоче захопити Імбирна Мати разом зі своєю мишачою армією. Кларі треба дістатися до Четвертої Країни та дати бій ворогові. Цей світ потребує гармонії.


Тривалість: 01:39:16
Якість: 4K UltraHD Remux 2160p
Відео:
кодек: H.265 (HEVC)
розмір кадру: 3840x2160
бітрейт: 71,7 Мб/с
бітова глибина: 10 біт
кольоровий простір: BT.2020 (HDR)

Аудіо # 1:
мова: українська
переклад: професійний дубльований
кодек: 5.1
бітрейт: 640 кб/с

Аудіо # 2:
мова: українська
переклад: професійний дубльований
кодек: 5.1
бітрейт: 1536 кб/с

Аудіо # 3:
мова: українська
переклад: професійний дубльований
кодек: -HD MA 5.1
бітрейт: 3930 кб/с

Аудіо # 4:
мова: англійська
переклад: оригінал
кодек: 5.1
бітрейт: 640 кб/с

Аудіо # 5:
мова: англійська
переклад: оригінал
кодек: -HD Master 7.1
бітрейт: 3490 кб/с

Аудіо # 6:
мова: англійська
переклад: оригінал
кодек: TrueHD 7.1
бітрейт: 4942 кб/с

Субтитри (SDH, Full):
мова: англійська
тип: програмні (м'які)
формат: *.srt
Info
Код:
General
Complete name                            : The Nutcracker and the Four Realms (2018) [UKR_ENG] Remux 4K 2160p HDR H.265 [ViDeO_Hurtom].
Format                                   :
Format version                           : Version 4
File size                                : 60.3 GiB
Duration                                 : 1 h 39 min
Overall bit rate mode                    : Variable
Overall bit rate                         : 86.9 Mb/s
Movie name                               : The Nutcracker and the Four Realms (2018) [UKR_ENG] Remux 4K 2160p HDR H.265 [ViDeO_Hurtom]
Encoded date                             : UTC 2019-03-14 12:46:38
Writing application                      : v30.1.0 ('Forever And More') 64-bit
Writing library                          : libebml v1.3.6 + v1.4.9

Video
ID                                       : 1
Format                                   : HEVC
Format/Info                              : High Efficiency Video Coding
Commercial name                          : HDR10
Format profile                           : Main [email protected]@High
Codec ID                                 : V_MPEGH/ISO/HEVC
Duration                                 : 1 h 39 min
Bit rate                                 : 71.7 Mb/s
Width                                    : 3 840 pixels
Height                                   : 2 160 pixels
Display aspect ratio                     : 16:9
Frame rate mode                          : Constant
Frame rate                               : 23.976 (24000/1001) FPS
Color space                              : YUV
Chroma subsampling                       : 4:2:0 (Type 2)
Bit depth                                : 10 bits
Bits/(Pixel*Frame)                       : 0.360
Stream size                              : 49.7 GiB (82%)
Title                                    : The.Nutcracker.and.the.Four.Realms.2018.2160p.BluRay.REMUX.HEVC.-HD.MA.TrueHD.Atmos.7.1-FGT
Default                                  : Yes
Forced                                   : No
Color range                              : Limited
Color primaries                          : BT.2020
Transfer characteristics                 : PQ
Matrix coefficients                      : BT.2020 non-constant
Mastering display color primaries        : Display P3
Mastering display luminance              : min: 0.0050 cd/m2, max: 4000 cd/m2
Maximum Content Light Level              : 183 cd/m2
Maximum Frame-Average Light Level        : 149 cd/m2

Audio #1
ID                                       : 2
Format                                   : AC-3
Format/Info                              : Audio Coding 3
Commercial name                          : Dolby Digital
Codec ID                                 : A_AC3
Duration                                 : 1 h 39 min
Bit rate mode                            : Constant
Bit rate                                 : 640 kb/s
Channel(s)                               : 6 channels
Channel layout                           : L R C LFE Ls Rs
Sampling rate                            : 48.0 kHz
Frame rate                               : 31.250 FPS (1536 SPF)
Bit depth                                : 16 bits
Compression mode                         : Lossy
Delay relative to video                  : -15 ms
Stream size                              : 454 MiB (1%)
Title                                    : , 6 ch, 640 Кбт/с
Language                                 : Ukrainian
Service kind                             : Complete Main
Default                                  : No
Forced                                   : No

Audio #2
ID                                       : 3
Format                                   :
Format/Info                              : Digital Theater Systems
Codec ID                                 : A_DTS
Duration                                 : 1 h 39 min
Bit rate mode                            : Constant
Bit rate                                 : 1 509 kb/s
Channel(s)                               : 6 channels
Channel layout                           : C L R Ls Rs LFE
Sampling rate                            : 48.0 kHz
Frame rate                               : 93.750 FPS (512 SPF)
Bit depth                                : 24 bits
Compression mode                         : Lossy
Delay relative to video                  : -15 ms
Stream size                              : 1.05 GiB (2%)
Title                                    : , 6 ch, 1536 Кбт/с
Language                                 : Ukrainian
Default                                  : No
Forced                                   : No

Audio #3
ID                                       : 4
Format                                   : XLL
Format/Info                              : Digital Theater Systems
Commercial name                          : -HD Master Audio
Codec ID                                 : A_DTS
Duration                                 : 1 h 39 min
Bit rate mode                            : Variable
Bit rate                                 : 3 930 kb/s
Channel(s)                               : 6 channels
Channel layout                           : C L R Ls Rs LFE
Sampling rate                            : 48.0 kHz
Frame rate                               : 93.750 FPS (512 SPF)
Bit depth                                : 24 bits
Compression mode                         : Lossless
Delay relative to video                  : -15 ms
Stream size                              : 2.73 GiB (5%)
Title                                    : -HD Master Audio,  ch, 3930 Кбт/с
Language                                 : Ukrainian
Default                                  : Yes
Forced                                   : No

Audio #4
ID                                       : 5
Format                                   : AC-3
Format/Info                              : Audio Coding 3
Commercial name                          : Dolby Digital
Codec ID                                 : A_AC3
Duration                                 : 1 h 39 min
Bit rate mode                            : Constant
Bit rate                                 : 640 kb/s
Channel(s)                               : 6 channels
Channel layout                           : L R C LFE Ls Rs
Sampling rate                            : 48.0 kHz
Frame rate                               : 31.250 FPS (1536 SPF)
Bit depth                                : 16 bits
Compression mode                         : Lossy
Stream size                              : 454 MiB (1%)
Title                                    : , 6 ch, 640 Кбт/с
Language                                 : English
Service kind                             : Complete Main
Default                                  : No
Forced                                   : No

Audio #5
ID                                       : 6
Format                                   : XLL
Format/Info                              : Digital Theater Systems
Commercial name                          : -HD Master Audio
Codec ID                                 : A_DTS
Duration                                 : 1 h 39 min
Bit rate mode                            : Variable
Bit rate                                 : 3 490 kb/s
Channel(s)                               : 8 channels
Channel layout                           : C L R LFE Lb Rb Lss Rss
Sampling rate                            : 48.0 kHz
Frame rate                               : 93.750 FPS (512 SPF)
Bit depth                                : 24 bits
Compression mode                         : Lossless
Delay relative to video                  : -15 ms
Stream size                              : 2.42 GiB (4%)
Title                                    : -HD Master Audio, 8 ch, 3490 Кбт/с
Language                                 : English
Default                                  : No
Forced                                   : No

Audio #6
ID                                       : 7
Format                                   : MLP FBA 16-ch
Format/Info                              : Meridian Lossless Packing FBA with 16-channel presentation
Commercial name                          : Dolby TrueHD with Dolby Atmos
Codec ID                                 : A_TRUEHD
Duration                                 : 1 h 39 min
Bit rate mode                            : Variable
Bit rate                                 : 4 942 kb/s
Maximum bit rate                         : 7 977 kb/s
Channel(s)                               : 8 channels
Channel layout                           : L R C LFE Ls Rs Lb Rb
Sampling rate                            : 48.0 kHz
Frame rate                               : 1 200.000 FPS (40 SPF)
Compression mode                         : Lossless
Stream size                              : 3.43 GiB (6%)
Title                                    : TrueHD, 8 ch, 4942 кбт/с
Language                                 : English
Default                                  : No
Forced                                   : No
Number of dynamic objects                : 13
Bed channel count                        : 1 channel
Bed channel configuration                : LFE

Text #1
ID                                       : 8
Format                                   : UTF-8
Codec ID                                 : S_TEXT/UTF8
Codec ID/Info                            : UTF-8 Plain Text
Duration                                 : 1 h 27 min
Bit rate                                 : 43 b/s
Count of elements                        : 1098
Stream size                              : 27.7 KiB (0%)
Title                                    : Full
Language                                 : English
Default                                  : Yes
Forced                                   : No

Text #2
ID                                       : 9
Format                                   : UTF-8
Codec ID                                 : S_TEXT/UTF8
Codec ID/Info                            : UTF-8 Plain Text
Duration                                 : 1 h 36 min
Bit rate                                 : 45 b/s
Count of elements                        : 1340
Stream size                              : 32.4 KiB (0%)
Title                                    : SDH
Language                                 : English
Default                                  : No
Forced                                   : No
Скріншоти


Подяка пану Hanway за синхронізацію звуку.

Джерело: &
Особиста оцінка: 7 - моїй подрузі не сподобалося
Увага! Перед завантаженням переконайтесь, що ваш пристрій відтворення (та/або ПЗ) підтримує H.265 (HEVC)


Золотий реліз (завантажене не впливає на рейтинг)
 Трекер:    Зареєстрований   

Завантажити / скачати фільм українською



відео для новачків



 Зареєстрований:   2019-03-15 21:05
 Розмір:   60.26 GB 
 Оцінка фільму:   7.3/10 (Голосів: 23)
   
sandman 
VIP


З нами з: 12.08.12
Востаннє: 21.09.19
Повідомлень: 274

2019-01-29 11:24  
а 1080 ремукс часом не планували?
omm 
Відео Гуртом - фільмокрай
Відео Гуртом - фільмокрай


З нами з: 12.06.12
Востаннє: 22.09.19
Повідомлень: 2350

2019-01-29 12:58  
Насправді досить непоганий фільм. Місцями навіть зворушливий. Маккензі Фой непогано грає. Візуал нічогенький.
Так, немає якоїсь родзинки.. Але провалу та нищівної критики точно не заслуговує.
6,5 з 10

Cerguk 
Свій


З нами з: 30.09.09
Востаннє: 22.09.19
Повідомлень: 75

2019-01-29 13:41  
Дитині фільм сподобався, навіть додивилась від початку до кінця не відриваючись, що майже нереально ! Wide grin
Нічого надзвичайного звичайно тут немає, але цілком приємна казочка вийшла. А Кіра як завжди прикраса фільму ! Єдине що мені чомусь здавався фільм занадто затемнений в багатьох сценах, ніби і чіткість картинки на висоті, але постійно так і хотілось добавити світла в сцену ! Хоча можливо це лише мій телевізор так неадекватно картинку спотворив.

Anonymous 







2019-01-29 15:51  
sandman написано:
а 1080 ремукс часом не планували?

H.265 (HEVC)
Ні
:
Лускунчик і чотири королівства / The Nutcracker and the Four Realms (2018) 1080p Ukr/Eng | Sub Eng

sandman 
VIP


З нами з: 12.08.12
Востаннє: 21.09.19
Повідомлень: 274

2019-01-29 20:34  
antik_2008 написано:

мав на увазі саме ремукс, а не ріп. Але дякую за відповідь

Anonymous 







2019-01-29 20:38  
sandman написано:
мав на увазі саме ремукс, а не ріп. Але дякую за відповідь

гадаю так , але пізніше (7-10 днів)

ngxwinger 
Свій


З нами з: 19.01.14
Востаннє: 23.09.19
Повідомлень: 52

2019-01-30 00:17  
Я люблю гарні казки, фентезі, навіть мюзикли, проте цей фільм ледве змусив себе переглянути до кінця, зрозумів, що марно...

Сюжет зовсім ніякий, Кіра Найтлі кривляється, намагаючись буду схожою на геніальну Гелену Бонем Картер, головна героїня мила, проте нічого особливого, лише мишка весела, але її як і Моргана Фрімена мало. Було настільки нудно, що весь час хотілося вимкнути і видалити з ПК це непорозуміння.

Це той випадок, коли я зрадів, що не склалося потрапити до кінотеатру саме на цей сеанс... Я зазвичай намагаюсь знайти хоча б щось позитивне, але тут 2 з 10 це вже завищена оцінка.

Anonymous 







2019-03-12 03:33  
7/10
sandman 
VIP


З нами з: 12.08.12
Востаннє: 21.09.19
Повідомлень: 274

2019-03-12 12:30  
antik_2008 написано:
гадаю так , але пізніше (7-10 днів)

то як, дійдуть руки до ремукса 1080, чи самому закочувати рукави? Wink (1)

Anonymous 







2019-03-12 12:42  
sandman написано:
то як, дійдуть руки до ремукса 1080, чи самому закочувати рукави?

Сьогодні викладу.

Anonymous 







2019-03-15 21:05  
Роздачу оновлено

Замінив аудіо на якісніше

Ваш часовий пояс: GMT + 2 Години

Нова тема   Відповісти