Проект «Флорида» / The Florida Project (2017) Remux 1080p Ukr/Eng | Sub Eng

Нові коментарі

Нова тема   Відповісти
Автор Повідомлення
staf777 
Відео Гуртом - підтримка та поширення
Відео Гуртом - підтримка та поширення


З нами з: 16.11.16
Востаннє: 06.12.19
Повідомлень: 3038

2019-01-28 14:44  
Проект «Флорида» / The Florida Project (2017) Remux 1080p Ukr/Eng | Sub Eng

Проект «Флорида» / The Florida Project (2017) Remux 1080p Ukr/Eng | Sub Eng


Жанр: драма
Країна: США



Кінокомпанія: Cre Film, Freestyle Picture Company, June Pictures
Режисер: Шон Бейкер
Актори: Віллем Дефо, Бріа Вінайт, Бруклін Прінс, Валерія Котто, Крістофер Рівера, Калеб Лендрі Джонс, Мейкон Блер, Карен Карагулян, Сенді Кейн, Джим Р. Коулмен

Сюжет:
“Проект Флорида” — комедійна драма, тріумфатор “Двотижневика режисерів” Канського кінофестивалю — яскрава, пронизлива ода дитинству та неймовірно смішна історія для всіх, хто колись був дитиною.
Режисер Шон Бейкер довго не потрапляв на великий екран, але після “Санденса” домігся визнання та маючи у розпорядженні скромний бюджет, знімає історію про пригоди маленьких жителів Америки.


Тривалість: 01:51:36
Якість: Remux 1080p
Відео:
кодек:
розмір кадру: 1920 х 1080
бітрейт: 31,5 Mб/с

Аудіо # 1:
мова: українська
переклад: багатоголосий закадровий
кодек: 5.1
бітрейт: 384 кб/с

Аудіо # 2:
мова: англійська
переклад: оригінал
кодек: -HD MA 5.1
бітрейт: 3219 кб/с

Субтитри # 1-2:
мова: англійська
тип: пререндерні
формат: PGS
Info:
General
Unique ID : 22534609255030882705751727765459807213 (0x10F402041773927B6E07D1E6AFABABED)
Complete name : S:\The Florida Project (2017) Remux 1080p [Ukr.Eng] [Sub Eng] [Hurtom].
Format :
Format version : Version 4
File size : 27.4 GiB
Duration : 1 h 51 min
Overall bit rate mode : Variable
Overall bit rate : 35.1 Mb/s
Movie name : The Florida Project (2017) Remux 1080p [Ukr.Eng] [Sub Eng] [Hurtom]
Encoded date : UTC 2019-01-28 12:00:09
Writing application : v30.1.0 ('Forever And More') 64-bit
Writing library : libebml v1.3.6 + v1.4.9
Cover : Yes
Attachments : cover.jpg

Video
ID : 1
Format : AVC
Format/Info : Advanced Video Codec
Format profile : [email protected]
Format settings : CABAC / 4 Ref Frames
Format settings, CABAC : Yes
Format settings, ReFrames : 4 frames
Codec ID : V_MPEG4/ISO/AVC
Duration : 1 h 51 min
Bit rate mode : Variable
Bit rate : 31.5 Mb/s
Maximum bit rate : 37.0 Mb/s
Width : 1 920 pixels
Height : 1 080 pixels
Display aspect ratio : 16:9
Frame rate mode : Constant
Frame rate : 23.976 (24000/1001) FPS
Color space : YUV
Chroma subsampling : 4:2:0
Bit depth : 8 bits
Scan type : Progressive
Bits/(Pixel*Frame) : 0.633
Stream size : 24.5 GiB (90%)
Default : Yes
Forced : No

Audio #1
ID : 2
Format : AC-3
Format/Info : Audio Coding 3
Commercial name : Dolby Digital
Codec ID : A_AC3
Duration : 1 h 51 min
Bit rate mode : Constant
Bit rate : 384 kb/s
Channel(s) : 6 channels
Channel layout : L R C LFE Ls Rs
Sampling rate : 48.0 kHz
Frame rate : 31.250 FPS (1536 SPF)
Bit depth : 16 bits
Compression mode : Lossy
Stream size : 307 MiB (1%)
Language : Ukrainian
Service kind : Complete Main
Default : Yes
Forced : Yes

Audio #2
ID : 3
Format : XLL
Format/Info : Digital Theater Systems
Commercial name : -HD Master Audio
Codec ID : A_DTS
Duration : 1 h 51 min
Bit rate mode : Variable
Bit rate : 3 219 kb/s
Channel(s) : 6 channels
Channel layout : C L R Ls Rs LFE
Sampling rate : 48.0 kHz
Frame rate : 93.750 FPS (512 SPF)
Bit depth : 24 bits
Compression mode : Lossless
Stream size : 2.51 GiB (9%)
Language : English
Default : No
Forced : No

Text #1
ID : 4
Format : PGS
Muxing mode : zlib
Codec ID : S_HDMV/PGS
Codec ID/Info : Picture based subtitle format used on BDs/HD-DVDs
Duration : 1 h 46 min
Bit rate : 55.5 kb/s
Count of elements : 3022
Stream size : 42.2 MiB (0%)
Language : English
Default : No
Forced : No

Text #2
ID : 5
Format : PGS
Muxing mode : zlib
Codec ID : S_HDMV/PGS
Codec ID/Info : Picture based subtitle format used on BDs/HD-DVDs
Duration : 1 h 50 min
Bit rate : 63.9 kb/s
Count of elements : 3510
Stream size : 50.6 MiB (0%)
Language : English
Default : No
Forced : No





Подяка пану Hanway за синхронізацію доріжки.
Джерело: &
Особиста оцінка: 0 - не дивився
ЗАЛИШАЙТЕСЬ ЯКОМОГА ДОВШЕ НА РОЗДАЧІ!

СКАЧАВ САМ - ДАЙ СКАЧАТИ ІНШИМ



Золотий реліз (завантажене не впливає на рейтинг)
 Трекер:    Зареєстрований   

Завантажити / скачати фільм українською



відео для новачків



 Зареєстрований:   2019-01-28 14:54
 Розмір:   27.4 GB 
 Оцінка фільму:   7.9/10 (Голосів: 16)
   
Hythlodaeus 
Новенький


З нами з: 16.12.14
Востаннє: 01.12.19
Повідомлень: 1

2019-01-29 21:23  
Шедевр.
hetzendorf 
Попереджень: 2
Попереджень: 2 


З нами з: 23.07.15
Востаннє: 06.12.19
Повідомлень: 2582

2019-04-13 23:13  
Hythlodaeus написано:
Шедевр.

Не перебільшуйте >>>

Ваш часовий пояс: GMT + 2 Години

Нова тема   Відповісти