Міські легенди / Urban Legend (1998) AVC 2xUkr/Eng | Sub Eng

Нові коментарі

Нова тема   Відповісти
Автор Повідомлення
staf777 
Відео Гуртом - підтримка та поширення
Відео Гуртом - підтримка та поширення


З нами з: 16.11.16
Востаннє: 23.04.19
Повідомлень: 2285

2019-01-28 13:37  
Міські легенди / Urban Legend (1998) AVC 2xUkr/Eng | Sub Eng

Міські легенди / Urban Legend (1998) AVC 2xUkr/Eng | Sub Eng


Жанр: жахи, трилер, детектив
Країна: США, Франція



Кінокомпанія: Phoenix Pictures, Canal+ Droits Audiovisuels, Original Film
Режисер: Джеймі Бленкс / Jamie Blanks
Актори: Алісія Віт / Alicia Witt, Джаред Лето / Jared Leto, Ребекка Ґейгарт / Rebecca Gayheart, Тара Рід / Tara Reid, Джошуа Джексон / Joshua Jackson, Майкл Розенбаум / Michael Rosenbaum, Лоретта Дівайн / Loretta Devine, Даніель Гарріс / Danielle Harris, Джон Невіл / John Neville, Роберт Інґлунд / Robert Englund та інші

Сюжет:
Тихе студентське містечко сколихнула серія кривавих убивств, скоєних з безпрецедентною жорстокістю. Поліція не здогадується, що вони якимсь чином пов'язані, адже між цими жорстокими злочинами немає нічого спільного. Однак студентці Наталі вдалося виявити страшний зв'язок. На перший погляд, він здається неймовірним: у кожному вбивстві оживають міські легенди, страшні історії з сучасного фольклору, передавані з вуст у вуста. Ні викладачі, ні друзі не вірять дівчині... і стають наступними жертвами таємничого вбивці.


Тривалість: 01:39:38
Якість: AVC
Відео:
кодек:
розмір кадру: 1024x428
бітрейт: 2226 кб/с

Аудіо # 1:
мова: українська
переклад: двоголосий закадровий
кодек: 2.0
бітрейт: 192 кб/с

Аудіо # 2:
мова: українська
переклад: двоголосий закадровий
кодек: 2.0
бітрейт: 192 кб/с
примітка: на проміжку 01:31:34-01:36:07 використано озвучення студії "1+1" через неповний запис з Нового каналу

Аудіо # 3:
мова: англійська
переклад: оригінал
кодек: 5.1
бітрейт: 448 кб/с

Субтитри:
мова: англійська
тип: програмні (м'які)
формат: *.srt
MI
General
Unique ID : 238866804542920985545200867136910766153 (0xB3B412BA8B2DB6F0C36B35B88021B049)
Complete name : S:\» Відео » Українське озвучення » Фільми-AVC\Жахи\Urban Legend (1998) AVC [2xUkr][ENG][Hurtom].
Format :
Format version : Version 4
File size : 2.13 GiB
Duration : 1 h 39 min
Overall bit rate : 3 059 kb/s
Movie name : Urban Legend (1998) AVC [2xUkr][ENG][Hurtom]
Encoded date : UTC 2019-01-28 10:10:20
Writing application : v30.1.0 ('Forever And More') 64-bit
Writing library : libebml v1.3.6 + v1.4.9
Cover : Yes
Attachments : cover.jpg

Video
ID : 1
Format : AVC
Format/Info : Advanced Video Codec
Format profile : [email protected]
Format settings : CABAC / 11 Ref Frames
Format settings, CABAC : Yes
Format settings, ReFrames : 11 frames
Codec ID : V_MPEG4/ISO/AVC
Duration : 1 h 39 min
Bit rate : 2 226 kb/s
Width : 1 024 pixels
Height : 428 pixels
Display aspect ratio : 2.40:1
Frame rate mode : Constant
Frame rate : 23.976 (24000/1001) FPS
Color space : YUV
Chroma subsampling : 4:2:0
Bit depth : 8 bits
Scan type : Progressive
Bits/(Pixel*Frame) : 0.212
Stream size : 1.55 GiB (73%)
Writing library : core 146 r2538 121396c
Encoding settings : cabac=1 / ref=11 / deblock=1:-1:-1 / analyse=0x3:0x133 / me=umh / subme=11 / psy=1 / psy_rd=1.00:0.15 / mixed_ref=1 / me_range=32 / chroma_me=1 / trellis=2 / 8x8dct=1 / cqm=0 / deadzone=21,11 / fast_pskip=0 / chroma_qp_offset=-3 / threads=12 / lookahead_threads=2 / sliced_threads=0 / nr=0 / decimate=0 / interlaced=0 / bluray_compat=0 / constrained_intra=0 / bframes=8 / b_pyramid=2 / b_adapt=2 / b_bias=0 / direct=3 / weightb=1 / open_gop=0 / weightp=2 / keyint=240 / keyint_min=23 / scenecut=40 / intra_refresh=0 / rc=2pass / mbtree=0 / bitrate=2226 / ratetol=1.0 / qcomp=0.60 / qpmin=0 / qpmax=69 / qpstep=4 / cplxblur=20.0 / qblur=0.5 / ip_ratio=1.40 / pb_ratio=1.30 / aq=1:0.90
Default : Yes
Forced : No

Audio #1
ID : 2
Format : AC-3
Format/Info : Audio Coding 3
Commercial name : Dolby Digital
Codec ID : A_AC3
Duration : 1 h 39 min
Bit rate mode : Constant
Bit rate : 192 kb/s
Channel(s) : 2 channels
Channel layout : L R
Sampling rate : 48.0 kHz
Frame rate : 31.250 FPS (1536 SPF)
Bit depth : 16 bits
Compression mode : Lossy
Stream size : 137 MiB (6%)
Title : [UKR-DVO-1+1]
Language : Ukrainian
Service kind : Complete Main
Default : Yes
Forced : Yes

Audio #2
ID : 3
Format : AC-3
Format/Info : Audio Coding 3
Commercial name : Dolby Digital
Codec ID : A_AC3
Duration : 1 h 39 min
Bit rate mode : Constant
Bit rate : 192 kb/s
Channel(s) : 2 channels
Channel layout : L R
Sampling rate : 48.0 kHz
Frame rate : 31.250 FPS (1536 SPF)
Bit depth : 16 bits
Compression mode : Lossy
Stream size : 137 MiB (6%)
Title : [UKR-DVO-H]
Language : Ukrainian
Service kind : Complete Main
Default : No
Forced : No

Audio #3
ID : 4
Format : AC-3
Format/Info : Audio Coding 3
Commercial name : Dolby Digital
Codec ID : A_AC3
Duration : 1 h 39 min
Bit rate mode : Constant
Bit rate : 448 kb/s
Channel(s) : 6 channels
Channel layout : L R C LFE Ls Rs
Sampling rate : 48.0 kHz
Frame rate : 31.250 FPS (1536 SPF)
Bit depth : 16 bits
Compression mode : Lossy
Stream size : 319 MiB (15%)
Language : English
Service kind : Complete Main
Default : No
Forced : No

Text
ID : 5
Format : UTF-8
Codec ID : S_TEXT/UTF8
Codec ID/Info : UTF-8 Plain Text
Duration : 1 h 34 min
Bit rate : 49 b/s
Count of elements : 915
Stream size : 34.0 KiB (0%)
Language : English
Default : No
Forced : No

Menu
00:00:00.000 : en:00:00:00.000
00:09:32.071 : en:00:09:32.071
00:15:11.911 : en:00:15:11.911
00:20:07.790 : en:00:20:07.790
00:25:26.108 : en:00:25:26.108
00:35:10.734 : en:00:35:10.734
00:37:52.020 : en:00:37:52.020
00:45:32.271 : en:00:45:32.271
00:50:17.264 : en:00:50:17.264
00:56:40.689 : en:00:56:40.689
00:59:36.114 : en:00:59:36.114
01:09:00.094 : en:01:09:00.094
01:15:18.723 : en:01:15:18.723
01:19:33.268 : en:01:19:33.268
01:27:00.048 : en:01:27:00.048
01:31:04.668 : en:01:31:04.668




Джерело: & RUTOR
Особиста оцінка: 10 - без зайвих вагань рекомендую всім!


Срібний реліз (на рейтинг впливає 50% завантаженого)
 Трекер:    Зареєстрований   

Завантажити / скачати фільм українською



відео для новачків



 Зареєстрований:   2019-01-28 13:37
 Розмір:   2.13 GB 
 Оцінка фільму:   7.3/10 (Голосів: 7)
   
Інші релізи
Ваш часовий пояс: GMT + 2 Години

Нова тема   Відповісти