Коломбо (Сезон 2) / Columbo (Season 2) (1972-1973) Remux 1080i Ukr/Eng | Sub Eng

Нові коментарі

Нова тема   Відповісти
Автор Повідомлення
MakRA 
VIP


З нами з: 10.11.18
Востаннє: 01.12.20
Повідомлень: 1164

2019-01-28 01:53  
Коломбо (Сезон 2) / Columbo (Season 2) (1972-1973) Remux 1080i Ukr/Eng | Sub Eng

Коломбо (Сезон 2) / Columbo (Season 2) (1972-1973) Remux 1080i Ukr/Eng | Sub Eng


Жанр: детектив, кримінальний
Країна: США



Кінокомпанія: Universal Studios
Телеканали: NBC (1968–1978), ABC (1989–2003)
Композитор: Генрі Манчіні [Henry Mancini]

Перелік серій другого сезону:
1. Етюд у чорному кольорі (Етюд в чорних тонах) / Etude in Black (17 вересня 1972)

Режисер: Ніколас Коласанто [Nicholas Colasanto]
Сценарій: Стівен Бочко [Steven Bochco], Річард Левінсон [Richard Levinson], Вільям Лінк [William Link].
Актори: Пітер Фальк [Peter Michael Falk], Джон Кассаветіс [John Cassavetes], Блайт Даннер [Blythe Danner], Мірна Лой [Myrna Loy], Пет Моріта [Pat Morita].

Сюжет:
Молода піаністка Дженніфер Веллес наполягає на законному шлюбі з одруженим диригентом Алексом Бенедиктом, погрожуючи, в іншому випадку, оприлюднити їх любовний зв'язок. Аби не допустити скандалу, чоловік вбиває дівчину, при цьому маскуючи вбивство під самогубство, проте припускається помилки, яку помічає лейтенант Коломбо.


Тривалість: 01:36:24
Якість: Remux 1080i
Відео:
кодек:
розмір кадру: 1920 х 1080
бітрейт: 26,8 Мб/с

Аудіо # 1:
мова: українська
переклад: багатоголосий закадровий ["Так Треба Продакшн"]
кодек: 2.0
бітрейт: 192 кб/с

Аудіо # 2:
мова: англійська
переклад: оригінал
кодек: 2.0
бітрейт: 448 кб/с

Субтитри:
мова: англійська
тип: пререндерні
формат: *.pgs
Info
General
Unique ID : 209304308024287651597610775948042998243 (0x9D768B1E50ADD866E0CBDA81D88891E3)
Complete name : F:\Columbo. Collection\Columbo. Season 2 (1972-1973) Remux 1080p UkrEng\Columbo. S2E01 Etude in Black (1972) Remux 1080p UkrEng Sub Eng [Hurtom].
Format :
Format version : Version 4 / Version 2
File size : 18.5 GiB
Duration : 1 h 36 min
Overall bit rate mode : Variable
Overall bit rate : 27.4 Mb/s
Encoded date : UTC 2019-01-27 14:35:10
Writing application : v25.0.0 ('Prog Noir') 64-bit
Writing library : libebml v1.3.6 + v1.4.9

Video
ID : 1
Format : AVC
Format/Info : Advanced Video Codec
Format profile : [email protected]
Format settings, CABAC : Yes
Format settings, RefFrames : 4 frames
Codec ID : V_MPEG4/ISO/AVC
Duration : 1 h 36 min
Bit rate mode : Variable
Bit rate : 26.8 Mb/s
Maximum bit rate : 40.0 Mb/s
Width : 1 920 pixels
Height : 1 080 pixels
Display aspect ratio : 16:9
Frame rate mode : Constant
Frame rate : 29.970 (30000/1001) FPS
Color space : YUV
Chroma subsampling : 4:2:0
Bit depth : 8 bits
Scan type : MBAFF
Scan type, store method : Interleaved fields
Scan order : Top Field First
Bits/(Pixel*Frame) : 0.431
Stream size : 18.0 GiB (98%)
Title : Columbo. S2E01 Etude in Black(1972) Remux 1080p UkrEng Sub Eng [Hurtom]
Language : Ukrainian
Default : Yes
Forced : Yes

Audio #1
ID : 2
Format : AC-3
Format/Info : Audio Coding 3
Format settings, Endianness : Big
Codec ID : A_AC3
Duration : 1 h 36 min
Bit rate mode : Constant
Bit rate : 192 kb/s
Channel(s) : 2 channels
Channel positions : Front: L R
Sampling rate : 48.0 kHz
Frame rate : 31.250 FPS (1536 SPF)
Bit depth : 16 bits
Compression mode : Lossy
Stream size : 132 MiB (1%)
Title : MVO [НТН] | Студія "Так Треба Продакшн"
Language : Ukrainian
Service kind : Complete Main
Default : Yes
Forced : Yes

Audio #2
ID : 3
Format : AC-3
Format/Info : Audio Coding 3
Format settings, Endianness : Big
Codec ID : A_AC3
Duration : 1 h 36 min
Bit rate mode : Constant
Bit rate : 448 kb/s
Channel(s) : 2 channels
Channel positions : Front: L R
Sampling rate : 48.0 kHz
Frame rate : 31.250 FPS (1536 SPF)
Bit depth : 16 bits
Compression mode : Lossy
Stream size : 309 MiB (2%)
Title : Original
Language : English
Service kind : Complete Main
Default : No
Forced : No

Text
ID : 4
Format : PGS
Muxing mode : zlib
Codec ID : S_HDMV/PGS
Codec ID/Info : Picture based subtitle format used on BDs/HD-DVDs
Duration : 1 h 35 min
Bit rate : 49.1 kb/s
Count of elements : 2646
Stream size : 33.5 MiB (0%)
Title : Eng
Language : English
Default : No
Forced : No
Скріншоти
2. Тепличні джунглі (Смерть в оранжереї) / The Greenhouse Jungle (15 жовтня 1972)

Режисер: Борис Сагал [Boris Sagal]
Сценарій: Джонатан Латімер [Jonathan Wyatt Latimer]
Актори: Пітер Фальк [Peter Michael Falk], Рей Мілланд [Ray Milland], Бредфорд Діллман [Bradford Dillman].

Сюжет:
Колекціонер рідкісних орхідей Джарвіс Гудленд разом зі своїм племінником Тоні інсценує викрадення останнього, щоб пограбувати трастовий фонд. Після того, як викуп був отриманий, дядько вбиває племінника. Не бажаючи ділитися з дружиною Тоні, Джарвіс Гудленд підкидає їй знаряддя вбивства, щоб підозра впала на неї.


Тривалість: 01:13:50
Якість: Remux 1080i
Відео:
кодек:
розмір кадру: 1920 х 1080
бітрейт: 29,8 Мб/с

Аудіо # 1:
мова: українська
переклад: багатоголосий закадровий ["Так Треба Продакшн"]
кодек: 2.0
бітрейт: 192 кб/с

Аудіо # 2:
мова: англійська
переклад: оригінал
кодек: 2.0
бітрейт: 448 кб/с

Субтитри:
мова: англійська
тип: пререндерні
формат: *.pgs
Info
General
Unique ID : 236771286685522650209505122917752857264 (0xB2207DB8B8AB26C830CD8CC58D7562B0)
Complete name : F:\Columbo. Collection\Columbo. Season 2 (1972-1973) Remux 1080p UkrEng\Columbo. S2E02 The Greenhouse Jungle (1972) Remux 1080p UkrEng Sub Eng [Hurtom].
Format :
Format version : Version 4 / Version 2
File size : 15.7 GiB
Duration : 1 h 13 min
Overall bit rate mode : Variable
Overall bit rate : 30.5 Mb/s
Encoded date : UTC 2019-01-27 14:46:12
Writing application : v25.0.0 ('Prog Noir') 64-bit
Writing library : libebml v1.3.6 + v1.4.9

Video
ID : 1
Format : AVC
Format/Info : Advanced Video Codec
Format profile : [email protected]
Format settings, CABAC : Yes
Format settings, RefFrames : 4 frames
Codec ID : V_MPEG4/ISO/AVC
Duration : 1 h 13 min
Bit rate mode : Variable
Bit rate : 29.8 Mb/s
Maximum bit rate : 40.0 Mb/s
Width : 1 920 pixels
Height : 1 080 pixels
Display aspect ratio : 16:9
Frame rate mode : Constant
Frame rate : 29.970 (30000/1001) FPS
Color space : YUV
Chroma subsampling : 4:2:0
Bit depth : 8 bits
Scan type : MBAFF
Scan type, store method : Interleaved fields
Scan order : Top Field First
Bits/(Pixel*Frame) : 0.480
Stream size : 15.4 GiB (98%)
Title : Columbo. S2E02 The Greenhouse Jungle (1972) Remux 1080p UkrEng Sub Eng [Hurtom]
Language : Ukrainian
Default : Yes
Forced : Yes

Audio #1
ID : 2
Format : AC-3
Format/Info : Audio Coding 3
Format settings, Endianness : Big
Codec ID : A_AC3
Duration : 1 h 13 min
Bit rate mode : Constant
Bit rate : 192 kb/s
Channel(s) : 2 channels
Channel positions : Front: L R
Sampling rate : 48.0 kHz
Frame rate : 31.250 FPS (1536 SPF)
Bit depth : 16 bits
Compression mode : Lossy
Stream size : 101 MiB (1%)
Title : MVO [НТН] | Студія "Так Треба Продакшн"
Language : Ukrainian
Service kind : Complete Main
Default : Yes
Forced : Yes

Audio #2
ID : 3
Format : AC-3
Format/Info : Audio Coding 3
Format settings, Endianness : Big
Codec ID : A_AC3
Duration : 1 h 13 min
Bit rate mode : Constant
Bit rate : 448 kb/s
Channel(s) : 2 channels
Channel positions : Front: L R
Sampling rate : 48.0 kHz
Frame rate : 31.250 FPS (1536 SPF)
Bit depth : 16 bits
Compression mode : Lossy
Stream size : 237 MiB (1%)
Title : Original
Language : English
Service kind : Complete Main
Default : No
Forced : No

Text
ID : 4
Format : PGS
Muxing mode : zlib
Codec ID : S_HDMV/PGS
Codec ID/Info : Picture based subtitle format used on BDs/HD-DVDs
Duration : 1 h 12 min
Bit rate : 53.8 kb/s
Count of elements : 2202
Stream size : 28.1 MiB (0%)
Title : Eng
Language : English
Default : No
Forced : No
Скріншоти
3. Найнебезпечніша гра (Смертельна розв'язка) / The Most Crucial Game (5 листопада 1972)

Режисер: Джеремі Каган [Jeremy Kagan]
Сценарій: Джон Т. Дуган [John T. Dugan]
Актори: Пітер Фальк [Peter Michael Falk], Роберт Калп [Robert Culp], Дін Джаггер [Dean Jagger], Валері Харпер [Valerie Harper], Сьюзан Ховард [Susan Howard], Дін Стоквелл [Robert Dean Stockwell].

Сюжет:
Студент останнього курсу Ерік Вагнер успадкував від батька футбольну команду «Лос-Анджелес Рокетс». Але його ставлення до справи не влаштовує Пола Хенлона, тренера команди, який вважає, що у Вагнера не вистачає амбіцій. Хенлон, який мріє про створення спортивної імперії, вбиває Еріка Вагнера і обставляє вбивство як нещасний випадок. При цьому він уміло маскує сліди і докази. Однак Коломбо, який розслідує дивну смерть, швидко визначає, що це умисне вбивство.


Тривалість: 01:13:51
Якість: Remux 1080i
Відео:
кодек:
розмір кадру: 1920 х 1080
бітрейт: 29,8 Мб/с

Аудіо # 1:
мова: українська
переклад: багатоголосий закадровий ["Так Треба Продакшн"]
кодек: 2.0
бітрейт: 192 кб/с

Аудіо # 2:
мова: англійська
переклад: оригінал
кодек: 2.0
бітрейт: 448 кб/с

Субтитри:
мова: англійська
тип: пререндерні
формат: *.pgs
Info
General
Unique ID : 89417394008034235937332327969662163081 (0x434529E6132D2F8A186CE2914087D889)
Complete name : F:\Columbo. Collection\Columbo. Season 2 (1972-1973) Remux 1080p UkrEng\Columbo. S2E03 The Most Crucial Game (1972) Remux 1080p UkrEng Sub Eng [Hurtom].
Format :
Format version : Version 4 / Version 2
File size : 15.7 GiB
Duration : 1 h 13 min
Overall bit rate mode : Variable
Overall bit rate : 30.5 Mb/s
Encoded date : UTC 2019-01-27 15:00:36
Writing application : v25.0.0 ('Prog Noir') 64-bit
Writing library : libebml v1.3.6 + v1.4.9

Video
ID : 1
Format : AVC
Format/Info : Advanced Video Codec
Format profile : [email protected]
Format settings, CABAC : Yes
Format settings, RefFrames : 4 frames
Codec ID : V_MPEG4/ISO/AVC
Duration : 1 h 13 min
Bit rate mode : Variable
Bit rate : 29.8 Mb/s
Maximum bit rate : 40.0 Mb/s
Width : 1 920 pixels
Height : 1 080 pixels
Display aspect ratio : 16:9
Frame rate mode : Constant
Frame rate : 29.970 (30000/1001) FPS
Color space : YUV
Chroma subsampling : 4:2:0
Bit depth : 8 bits
Scan type : MBAFF
Scan type, store method : Interleaved fields
Scan order : Top Field First
Bits/(Pixel*Frame) : 0.480
Stream size : 15.4 GiB (98%)
Title : Columbo. S2E03 The Most Crucial Game (1972) Remux 1080p UkrEng Sub Eng [Hurtom]
Language : Ukrainian
Default : Yes
Forced : Yes

Audio #1
ID : 2
Format : AC-3
Format/Info : Audio Coding 3
Format settings, Endianness : Big
Codec ID : A_AC3
Duration : 1 h 13 min
Bit rate mode : Constant
Bit rate : 192 kb/s
Channel(s) : 2 channels
Channel positions : Front: L R
Sampling rate : 48.0 kHz
Frame rate : 31.250 FPS (1536 SPF)
Bit depth : 16 bits
Compression mode : Lossy
Stream size : 101 MiB (1%)
Title : MVO [НТН] | Студія "Так Треба Продакшн"
Language : Ukrainian
Service kind : Complete Main
Default : Yes
Forced : Yes

Audio #2
ID : 3
Format : AC-3
Format/Info : Audio Coding 3
Format settings, Endianness : Big
Codec ID : A_AC3
Duration : 1 h 13 min
Bit rate mode : Constant
Bit rate : 448 kb/s
Channel(s) : 2 channels
Channel positions : Front: L R
Sampling rate : 48.0 kHz
Frame rate : 31.250 FPS (1536 SPF)
Bit depth : 16 bits
Compression mode : Lossy
Stream size : 237 MiB (1%)
Title : Original
Language : English
Service kind : Complete Main
Default : No
Forced : No

Text
ID : 4
Format : PGS
Muxing mode : zlib
Codec ID : S_HDMV/PGS
Codec ID/Info : Picture based subtitle format used on BDs/HD-DVDs
Duration : 1 h 12 min
Bit rate : 59.5 kb/s
Count of elements : 2272
Stream size : 30.8 MiB (0%)
Title : Eng
Language : English
Default : No
Forced : No
Скріншоти
4. Кинжал уяви (З любові до мистецтва) / Dagger of the Mind (26 листопада 1972)

Режисер: Річард Куайн [Richard Quine]
Сценарій: Джексон Гілліс [Jackson Gillis], Річард Левінсон [Richard Levinson], Вільям Лінк [William Link]
Актори: Пітер Фальк [Peter Michael Falk], Річард Бейсхарт [Richard Basehart], Бернард Фокс [Bernard Fox], Хонор Блекман [Honor Blackman].

Сюжет:
Власник театру Роджер Хавершем розпочинає сварку з актором Королівської шекспірівської трупи Ніколасом Фрейми і його дружиною Ліліан Стенгоуп. В ході сутички Ліліан випадково вбиває його. Щоб приховати вбивство, подружжя кладе тіло в багажник автомобіля, відвозять в будинок убитого, де інсценують його падіння зі сходів. В цей час Коломбо знаходиться з візитом в Лондоні, куди прибув на запрошення старшого суперінтенданта Скотланд-Ярду Вільяма Дірка. Коломбо починає розслідування дивної смерті власника театру. Незабаром відбувається ще одне вбивство.


Тривалість: 01:37:33
Якість: Remux 1080i
Відео:
кодек:
розмір кадру: 1920 х 1080
бітрейт: 29,8 Мб/с

Аудіо # 1:
мова: українська
переклад: багатоголосий закадровий ["Так Треба Продакшн"]
кодек: 2.0
бітрейт: 192 кб/с

Аудіо # 2:
мова: англійська
переклад: оригінал
кодек: 2.0
бітрейт: 448 кб/с

Субтитри:
мова: англійська
тип: пререндерні
формат: *.pgs
Info
General
Unique ID : 57709885751191196673906604742204788448 (0x2B6A850B6C1393E5F843620822310EE0)
Complete name : F:\Columbo. Collection\Columbo. Season 2 (1972-1973) Remux 1080p UkrEng\Columbo. S2E04 Dagger of the Mind (1972) Remux 1080p UkrEng Sub Eng [Hurtom].
Format :
Format version : Version 4 / Version 2
File size : 20.8 GiB
Duration : 1 h 37 min
Overall bit rate mode : Variable
Overall bit rate : 30.4 Mb/s
Encoded date : UTC 2019-01-27 15:09:24
Writing application : v25.0.0 ('Prog Noir') 64-bit
Writing library : libebml v1.3.6 + v1.4.9

Video
ID : 1
Format : AVC
Format/Info : Advanced Video Codec
Format profile : [email protected]
Format settings, CABAC : Yes
Format settings, RefFrames : 4 frames
Codec ID : V_MPEG4/ISO/AVC
Duration : 1 h 37 min
Bit rate mode : Variable
Bit rate : 29.8 Mb/s
Maximum bit rate : 40.0 Mb/s
Width : 1 920 pixels
Height : 1 080 pixels
Display aspect ratio : 16:9
Frame rate mode : Constant
Frame rate : 29.970 (30000/1001) FPS
Color space : YUV
Chroma subsampling : 4:2:0
Bit depth : 8 bits
Scan type : MBAFF
Scan type, store method : Interleaved fields
Scan order : Top Field First
Bits/(Pixel*Frame) : 0.480
Stream size : 20.3 GiB (98%)
Title : Columbo. S2E04 Dagger of the Mind (1972) Remux 1080p UkrEng Sub Eng [Hurtom]
Language : Ukrainian
Default : Yes
Forced : Yes

Audio #1
ID : 2
Format : AC-3
Format/Info : Audio Coding 3
Format settings, Endianness : Big
Codec ID : A_AC3
Duration : 1 h 37 min
Bit rate mode : Constant
Bit rate : 192 kb/s
Channel(s) : 2 channels
Channel positions : Front: L R
Sampling rate : 48.0 kHz
Frame rate : 31.250 FPS (1536 SPF)
Bit depth : 16 bits
Compression mode : Lossy
Stream size : 134 MiB (1%)
Title : MVO [НТН] | Студія "Так Треба Продакшн"
Language : Ukrainian
Service kind : Complete Main
Default : Yes
Forced : Yes

Audio #2
ID : 3
Format : AC-3
Format/Info : Audio Coding 3
Format settings, Endianness : Big
Codec ID : A_AC3
Duration : 1 h 37 min
Bit rate mode : Constant
Bit rate : 448 kb/s
Channel(s) : 2 channels
Channel positions : Front: L R
Sampling rate : 48.0 kHz
Frame rate : 31.250 FPS (1536 SPF)
Bit depth : 16 bits
Compression mode : Lossy
Stream size : 313 MiB (1%)
Title : Original
Language : English
Service kind : Complete Main
Default : No
Forced : No

Text
ID : 4
Format : PGS
Muxing mode : zlib
Codec ID : S_HDMV/PGS
Codec ID/Info : Picture based subtitle format used on BDs/HD-DVDs
Duration : 1 h 36 min
Bit rate : 54.0 kb/s
Count of elements : 2640
Stream size : 37.1 MiB (0%)
Title : Eng
Language : English
Default : No
Forced : No
Скріншоти
5. Реквієм за падаючою зіркою (Реквієм для падачої зірки) / Requiem for a Falling Star (21 січня 1973)

Режисер: Річард Куайн [Richard Quine]
Сценарій: Джексон Гілліс [Jackson Gillis]
Актори: Пітер Фальк [Peter Michael Falk], Енн Бакстер [Anne Baxter], Кевін Маккарті [Kevin McCarthy], Мел Феррер [Mel Ferrer], Едіт Хед [Edith Head].

Сюжет:
Джин Девіс працює секретарем у немолодої кінозірки Нори Чандлер. Вона заручена зі скандально відомим письменником Джері Паркс, який має компрометуючу інформацію про Норі. Паркс вимагає великі гроші за мовчання, і Нора для виду погоджується, маючи намір позбутися шантажиста. У той же вечір Нора, бачать машину Паркса, що заїхала в гараж, обливає гараж бензином і підпалює його. Але вона не підозрює, що Девіс на вечір змінився автомобілями з своєю нареченою і замість Паркса гине Джин. Коломбо починає розслідування цього злочину.


Тривалість: 01:13:48
Якість: Remux 1080i
Відео:
кодек:
розмір кадру: 1920 х 1080
бітрейт: 29,8 Мб/с

Аудіо # 1:
мова: українська
переклад: багатоголосий закадровий ["Так Треба Продакшн"]
кодек: 2.0
бітрейт: 192 кб/с

Аудіо # 2:
мова: англійська
переклад: оригінал
кодек: 2.0
бітрейт: 448 кб/с

Субтитри:
мова: англійська
тип: пререндерні
формат: *.pgs
Info
General
Unique ID : 108028260387508337718961556132814134078 (0x51457C7475B91F21F67584EE0F141B3E)
Complete name : F:\Columbo. Collection\Columbo. Season 2 (1972-1973) Remux 1080p UkrEng\Columbo. S2E05 Requiem for a Falling Star (1973) Remux 1080p UkrEng Sub Eng [Hurtom].
Format :
Format version : Version 4 / Version 2
File size : 15.7 GiB
Duration : 1 h 13 min
Overall bit rate mode : Variable
Overall bit rate : 30.4 Mb/s
Encoded date : UTC 2019-01-27 15:22:01
Writing application : v25.0.0 ('Prog Noir') 64-bit
Writing library : libebml v1.3.6 + v1.4.9

Video
ID : 1
Format : AVC
Format/Info : Advanced Video Codec
Format profile : [email protected]
Format settings, CABAC : Yes
Format settings, RefFrames : 4 frames
Codec ID : V_MPEG4/ISO/AVC
Duration : 1 h 13 min
Bit rate mode : Variable
Bit rate : 29.8 Mb/s
Maximum bit rate : 40.0 Mb/s
Width : 1 920 pixels
Height : 1 080 pixels
Display aspect ratio : 16:9
Frame rate mode : Constant
Frame rate : 29.970 (30000/1001) FPS
Color space : YUV
Chroma subsampling : 4:2:0
Bit depth : 8 bits
Scan type : MBAFF
Scan type, store method : Interleaved fields
Scan order : Top Field First
Bits/(Pixel*Frame) : 0.479
Stream size : 15.4 GiB (98%)
Title : Columbo. S2E05 Requiem for a Falling Star (1973) Remux 1080p UkrEng Sub Eng [Hurtom]
Language : Ukrainian
Default : Yes
Forced : Yes

Audio #1
ID : 2
Format : AC-3
Format/Info : Audio Coding 3
Format settings, Endianness : Big
Codec ID : A_AC3
Duration : 1 h 13 min
Bit rate mode : Constant
Bit rate : 192 kb/s
Channel(s) : 2 channels
Channel positions : Front: L R
Sampling rate : 48.0 kHz
Frame rate : 31.250 FPS (1536 SPF)
Bit depth : 16 bits
Compression mode : Lossy
Stream size : 101 MiB (1%)
Title : MVO [НТН] | Студія "Так Треба Продакшн"
Language : Ukrainian
Service kind : Complete Main
Default : Yes
Forced : Yes

Audio #2
ID : 3
Format : AC-3
Format/Info : Audio Coding 3
Format settings, Endianness : Big
Codec ID : A_AC3
Duration : 1 h 13 min
Bit rate mode : Constant
Bit rate : 448 kb/s
Channel(s) : 2 channels
Channel positions : Front: L R
Sampling rate : 48.0 kHz
Frame rate : 31.250 FPS (1536 SPF)
Bit depth : 16 bits
Compression mode : Lossy
Stream size : 237 MiB (1%)
Title : Original
Language : English
Service kind : Complete Main
Default : No
Forced : No

Text
ID : 4
Format : PGS
Muxing mode : zlib
Codec ID : S_HDMV/PGS
Codec ID/Info : Picture based subtitle format used on BDs/HD-DVDs
Duration : 1 h 12 min
Bit rate : 61.6 kb/s
Count of elements : 2234
Stream size : 31.9 MiB (0%)
Title : Eng
Language : English
Default : No
Forced : No
Скріншоти
6. Заковика у вбивстві (Ланка в злочині) / A Stitch in Crime (11 лютого 1973)

Режисер: Хай Авербек [Hy Averback]
Сценарій: Шірл Хендрікс [Shirley Hendriks]
Актори: Пітер Фальк [Peter Michael Falk], Леонард Німой [Leonard Simon Nimoy], Вілл Гір [ Will Geer], Енн Френсіс [Frances Anne Hopkins].

Сюжет:
Доктор Баррі Мейфілд і його керівник доктор Хайдеманн здійснюють значне відкриття в кардіохірургії. Мейфілд хоче негайно опублікувати повідомлення про це відкриття, а Хайдеманн наполягає на продовженні досліджень. Але Мейфілд не має наміру чекати. Незабаром у Хайдеманн трапляється серцевий напад, і йому потрібна невідкладна допомога. Мейфілд, плануючи позбутися свого незговірливого наставника, виконує операцію на серці і навмисно використовує не придатний для цього шовний матеріал. Однак медсестра Шерон Мартін розкриває злочинний намір хірурга. Тоді Мейфілд вбиває Шерон і фабрикує докази проти її приятеля Гаррі Олександра, колишнього наркомана. Поки Коломбо розслідує вбивство медсестри, Мейфілд вбиває Гаррі. До того ж наближається день, коли нитки на серці доктора Хайдеманн повинні дати свій смертельний результат.


Тривалість: 01:13:49
Якість: Remux 1080i
Відео:
кодек:
розмір кадру: 1920 х 1080
бітрейт: 29,8 Мб/с

Аудіо # 1:
мова: українська
переклад: багатоголосий закадровий ["Так Треба Продакшн"]
кодек: 2.0
бітрейт: 192 кб/с

Аудіо # 2:
мова: англійська
переклад: оригінал
кодек: 2.0
бітрейт: 448 кб/с

Субтитри:
мова: англійська
тип: пререндерні
формат: *.pgs
Info
General
Unique ID : 92172421964734272210570416392535380503 (0x4557C343A3E509B487FD15AC2B299217)
Complete name : F:\Columbo. Collection\Columbo. Season 2 (1972-1973) Remux 1080p UkrEng\Columbo. S2E06 A Stitch in Crime (1973) Remux 1080p UkrEng Sub Eng [Hurtom].
Format :
Format version : Version 4 / Version 2
File size : 15.7 GiB
Duration : 1 h 13 min
Overall bit rate mode : Variable
Overall bit rate : 30.5 Mb/s
Encoded date : UTC 2019-01-27 15:39:49
Writing application : v25.0.0 ('Prog Noir') 64-bit
Writing library : libebml v1.3.6 + v1.4.9

Video
ID : 1
Format : AVC
Format/Info : Advanced Video Codec
Format profile : [email protected]
Format settings, CABAC : Yes
Format settings, RefFrames : 4 frames
Codec ID : V_MPEG4/ISO/AVC
Duration : 1 h 13 min
Bit rate mode : Variable
Bit rate : 29.8 Mb/s
Maximum bit rate : 40.0 Mb/s
Width : 1 920 pixels
Height : 1 080 pixels
Display aspect ratio : 16:9
Frame rate mode : Constant
Frame rate : 29.970 (30000/1001) FPS
Color space : YUV
Chroma subsampling : 4:2:0
Bit depth : 8 bits
Scan type : MBAFF
Scan type, store method : Interleaved fields
Scan order : Top Field First
Bits/(Pixel*Frame) : 0.480
Stream size : 15.4 GiB (98%)
Title : Columbo. S2E06 A Stitch in Crime (1973) Remux 1080p UkrEng Sub Eng [Hurtom]
Language : Ukrainian
Default : Yes
Forced : Yes

Audio #1
ID : 2
Format : AC-3
Format/Info : Audio Coding 3
Format settings, Endianness : Big
Codec ID : A_AC3
Duration : 1 h 13 min
Bit rate mode : Constant
Bit rate : 192 kb/s
Channel(s) : 2 channels
Channel positions : Front: L R
Sampling rate : 48.0 kHz
Frame rate : 31.250 FPS (1536 SPF)
Bit depth : 16 bits
Compression mode : Lossy
Stream size : 101 MiB (1%)
Title : MVO [НТН] | Студія "Так Треба Продакшн"
Language : Ukrainian
Service kind : Complete Main
Default : Yes
Forced : Yes

Audio #2
ID : 3
Format : AC-3
Format/Info : Audio Coding 3
Format settings, Endianness : Big
Codec ID : A_AC3
Duration : 1 h 13 min
Bit rate mode : Constant
Bit rate : 448 kb/s
Channel(s) : 2 channels
Channel positions : Front: L R
Sampling rate : 48.0 kHz
Frame rate : 31.250 FPS (1536 SPF)
Bit depth : 16 bits
Compression mode : Lossy
Stream size : 237 MiB (1%)
Title : Original
Language : English
Service kind : Complete Main
Default : No
Forced : No

Text
ID : 4
Format : PGS
Muxing mode : zlib
Codec ID : S_HDMV/PGS
Codec ID/Info : Picture based subtitle format used on BDs/HD-DVDs
Duration : 1 h 12 min
Bit rate : 53.1 kb/s
Count of elements : 2140
Stream size : 27.7 MiB (0%)
Title : Eng
Language : English
Default : No
Forced : No
Скріншоти
7. Найнебезпечніший матч / The Most Dangerous Match (4 березня 1973)

Режисер: Едвард М. Абрамс [Edward M Abrams]
Сценарій: Джексон Гілліс [Jackson Gillis]
Актори: Пітер Фальк [Peter Michael Falk], Лоуренс Харві [Laurence Harvey], Ллойд Бокнер [Lloyd Bochner], Джек Крушен [Jack Kruschen]

Сюжет:
Гросмейстер Еммет Клейтон боїться програти титул чемпіона шахісту зі Східної Європи, Томлін Дудеку. Напередодні їх матчу Клейтон намагається вбити його, але важко поранений Дудек все-таки виживає. Зневірений Клейтон планує отруїти свого суперника в лікарні, перш ніж він зможе прийти в себе і дати свідчення лейтенанту Коломбо, що розслідує цей злочин.


Тривалість: 01:13:52
Якість: Remux 1080i
Відео:
кодек:
розмір кадру: 1920 х 1080
бітрейт: 26,8 Мб/с

Аудіо # 1:
мова: українська
переклад: багатоголосий закадровий ["Так Треба Продакшн"]
кодек: 2.0
бітрейт: 192 кб/с

Аудіо # 2:
мова: англійська
переклад: оригінал
кодек: 2.0
бітрейт: 448 кб/с

Субтитри:
мова: англійська
тип: пререндерні
формат: *.pgs
Info
General
Unique ID : 197533858940576326283261171557746127028 (0x949BA32C691D49B5846A6D441030B0B4)
Complete name : F:\Columbo. Collection\Columbo. Season 2 (1972-1973) Remux 1080p UkrEng\Columbo. S2E07 The Most Dangerous Match (1973) Remux 1080p UkrEng Sub Eng [Hurtom].
Format :
Format version : Version 4 / Version 2
File size : 15.7 GiB
Duration : 1 h 13 min
Overall bit rate mode : Variable
Overall bit rate : 30.5 Mb/s
Encoded date : UTC 2019-01-27 15:48:24
Writing application : v25.0.0 ('Prog Noir') 64-bit
Writing library : libebml v1.3.6 + v1.4.9

Video
ID : 1
Format : AVC
Format/Info : Advanced Video Codec
Format profile : [email protected]
Format settings, CABAC : Yes
Format settings, RefFrames : 4 frames
Codec ID : V_MPEG4/ISO/AVC
Duration : 1 h 13 min
Bit rate mode : Variable
Bit rate : 29.8 Mb/s
Maximum bit rate : 40.0 Mb/s
Width : 1 920 pixels
Height : 1 080 pixels
Display aspect ratio : 16:9
Frame rate mode : Constant
Frame rate : 29.970 (30000/1001) FPS
Color space : YUV
Chroma subsampling : 4:2:0
Bit depth : 8 bits
Scan type : MBAFF
Scan type, store method : Interleaved fields
Scan order : Top Field First
Bits/(Pixel*Frame) : 0.480
Stream size : 15.4 GiB (98%)
Title : Columbo. S2E07 The Most Dangerous Match (1973) Remux 1080p UkrEng Sub Eng [Hurtom]
Language : Ukrainian
Default : Yes
Forced : Yes

Audio #1
ID : 2
Format : AC-3
Format/Info : Audio Coding 3
Format settings, Endianness : Big
Codec ID : A_AC3
Duration : 1 h 13 min
Bit rate mode : Constant
Bit rate : 192 kb/s
Channel(s) : 2 channels
Channel positions : Front: L R
Sampling rate : 48.0 kHz
Frame rate : 31.250 FPS (1536 SPF)
Bit depth : 16 bits
Compression mode : Lossy
Stream size : 101 MiB (1%)
Title : MVO [НТН] | Студія "Так Треба Продакшн"
Language : Ukrainian
Service kind : Complete Main
Default : Yes
Forced : No

Audio #2
ID : 3
Format : AC-3
Format/Info : Audio Coding 3
Format settings, Endianness : Big
Codec ID : A_AC3
Duration : 1 h 13 min
Bit rate mode : Constant
Bit rate : 448 kb/s
Channel(s) : 2 channels
Channel positions : Front: L R
Sampling rate : 48.0 kHz
Frame rate : 31.250 FPS (1536 SPF)
Bit depth : 16 bits
Compression mode : Lossy
Stream size : 237 MiB (1%)
Title : Original
Language : English
Service kind : Complete Main
Default : No
Forced : No

Text
ID : 4
Format : PGS
Muxing mode : zlib
Codec ID : S_HDMV/PGS
Codec ID/Info : Picture based subtitle format used on BDs/HD-DVDs
Duration : 1 h 12 min
Bit rate : 51.5 kb/s
Count of elements : 1904
Stream size : 26.8 MiB (0%)
Title : Eng
Language : English
Default : No
Forced : No
Скріншоти
8. Подвійний удар / Double Shock (25 березня 1973)

Режисер: Роберт Батлер [Robert Butler]
Сценарій: Стівен Бочко [Steven Bochco]
Актори: Пітер Фальк [Peter Michael Falk], Мартін Ландау [Martin Landau], Жанетт Нолан [Jeanette Nolan], Тім О’Коннор [Tim O'Connor], Джулі Ньюмар [Julie Newmar], Дебні Коулмен [Dabney Wharton Coleman].

Сюжет:
Літній мільйонер Кліффорд Періс заручений з Лізою Чемберс, яка годиться йому в онуки. Це не влаштовує його племінників, близнюків Нормана і Декстера, які розраховують на спадщину. Вони вирішуються на вбивство. Перед Коломбо встає непросте завдання — брати звинувачують один одного, і в обох є серйозні мотиви. Все ускладнюється тим, що адвокат Кліффорда, Майкл Гетевей, не приховує, що його духівниці вже переписав заповіт на користь своєї нареченої. Однак і вона незабаром гине.


Тривалість: 01:13:49
Якість: Remux 1080i
Відео:
кодек:
розмір кадру: 1920 х 1080
бітрейт: 29,8 Мб/с

Аудіо # 1:
мова: українська
переклад: багатоголосий закадровий ["Так Треба Продакшн"]
кодек: 2.0
бітрейт: 192 кб/с

Аудіо # 2:
мова: англійська
переклад: оригінал
кодек: 2.0
бітрейт: 448 кб/с

Субтитри:
мова: англійська
тип: пререндерні
формат: *.pgs
Info
General
Unique ID : 5445022783325145599061727401745292237 (0x418AC59A0FC15EB43C669F8EE8B9BCD)
Complete name : F:\Columbo. Collection\Columbo. Season 2 (1972-1973) Remux 1080p UkrEng\Columbo. S2E08 Double Shock (1973) Remux 1080p UkrEng Sub Eng [Hurtom].
Format :
Format version : Version 4 / Version 2
File size : 15.7 GiB
Duration : 1 h 13 min
Overall bit rate mode : Variable
Overall bit rate : 30.5 Mb/s
Encoded date : UTC 2019-01-27 15:56:38
Writing application : v25.0.0 ('Prog Noir') 64-bit
Writing library : libebml v1.3.6 + v1.4.9

Video
ID : 1
Format : AVC
Format/Info : Advanced Video Codec
Format profile : [email protected]
Format settings, CABAC : Yes
Format settings, RefFrames : 4 frames
Codec ID : V_MPEG4/ISO/AVC
Duration : 1 h 13 min
Bit rate mode : Variable
Bit rate : 29.8 Mb/s
Maximum bit rate : 40.0 Mb/s
Width : 1 920 pixels
Height : 1 080 pixels
Display aspect ratio : 16:9
Frame rate mode : Constant
Frame rate : 29.970 (30000/1001) FPS
Color space : YUV
Chroma subsampling : 4:2:0
Bit depth : 8 bits
Scan type : MBAFF
Scan type, store method : Interleaved fields
Scan order : Top Field First
Bits/(Pixel*Frame) : 0.480
Stream size : 15.4 GiB (98%)
Title : Columbo. S2E08 Double Shock (1973) Remux 1080p UkrEng Sub Eng [Hurtom]
Language : Ukrainian
Default : Yes
Forced : Yes

Audio #1
ID : 2
Format : AC-3
Format/Info : Audio Coding 3
Format settings, Endianness : Big
Codec ID : A_AC3
Duration : 1 h 13 min
Bit rate mode : Constant
Bit rate : 192 kb/s
Channel(s) : 2 channels
Channel positions : Front: L R
Sampling rate : 48.0 kHz
Frame rate : 31.250 FPS (1536 SPF)
Bit depth : 16 bits
Compression mode : Lossy
Stream size : 101 MiB (1%)
Title : MVO [НТН] | Студія "Так Треба Продакшн"
Language : Ukrainian
Service kind : Complete Main
Default : Yes
Forced : Yes

Audio #2
ID : 3
Format : AC-3
Format/Info : Audio Coding 3
Format settings, Endianness : Big
Codec ID : A_AC3
Duration : 1 h 13 min
Bit rate mode : Constant
Bit rate : 448 kb/s
Channel(s) : 2 channels
Channel positions : Front: L R
Sampling rate : 48.0 kHz
Frame rate : 31.250 FPS (1536 SPF)
Bit depth : 16 bits
Compression mode : Lossy
Stream size : 237 MiB (1%)
Title : Original
Language : English
Service kind : Complete Main
Default : No
Forced : No

Text
ID : 4
Format : PGS
Muxing mode : zlib
Codec ID : S_HDMV/PGS
Codec ID/Info : Picture based subtitle format used on BDs/HD-DVDs
Duration : 1 h 12 min
Bit rate : 59.9 kb/s
Count of elements : 2480
Stream size : 31.1 MiB (0%)
Title : Eng
Language : English
Default : No
Forced : No
Скріншоти
Джерело: &
Особиста оцінка: 10 - без зайвих вагань рекомендую всім!






Золотий реліз (завантажене не впливає на рейтинг)
 Трекер:    Зареєстрований   

Завантажити / скачати серіал українською



відео для новачків



 Зареєстрований:   2019-01-28 12:05
 Розмір:   133.52 GB 
 Оцінка серіалу:   9.9/10 (Голосів: 13)
   
MakRA 
VIP


З нами з: 10.11.18
Востаннє: 01.12.20
Повідомлень: 1164

2019-01-28 12:09  
Торрент файл оновлено. Виправлено помилку в назві серії. Прохання перезакачати.
igor911 
Модератор відео


З нами з: 18.01.08
Востаннє: 02.12.20
Повідомлень: 15084

2019-01-28 16:11  
Info написано:
Scan type : MBAFF
Scan type, store method : Interleaved fields
Scan order : Top Field First

тут черезрядковий відеоряд, виправив скрізь в описі з 1080p на 1080i

Додано через 3 хвилини:

* і в попередньому релізі

MakRA 
VIP


З нами з: 10.11.18
Востаннє: 01.12.20
Повідомлень: 1164

2019-01-28 16:25  
igor911
Ок. Дякую, не додивився.

+380954897458 
VIP


З нами з: 02.06.17
Востаннє: 02.12.20
Повідомлень: 990

2019-02-23 19:53  
Читаючи список акторів, тільки дивуюся тому, скільки там відомих імен. В 90-х, коли дивився по телевізору, ще нікого з них не знав.
MakRA 
VIP


З нами з: 10.11.18
Востаннє: 01.12.20
Повідомлень: 1164

2019-09-29 21:06  
Дякую тим, хто підтримує роздачу, незабаром продовжу свою улюблену детективну сагу!
[email protected] 
VIP


З нами з: 24.03.17
Востаннє: 30.11.20
Повідомлень: 603

2020-08-16 15:55  
Хороший серіал..
Ваш часовий пояс: GMT + 2 Години

Нова тема   Відповісти