Захисник (Сезон 1) / The Protector (Season 1) (2018) 1080p Ukr/Tur | sub Tur

Нові коментарі

Нова тема   Відповісти
Останній раз роздавалося Neytreenor (2019-08-18)
Автор Повідомлення
Anonymous 







2019-01-27 23:18  
Захисник (Сезон 1) / The Protector (Season 1) (2018) 1080p Ukr/Tur | sub Tur

Захисник (Сезон 1) / The Protector (Season 1) (2018) 1080p Ukr/Tur | sub Tur

Жанр: екшн, фентезі
Країна: Туреччина



Кінокомпанія: Netflix Studios, O3 Turkey Medya
Режисер: Умут Арал (Umut Aral), Гонендж Уянік (Gonenc Uyanik), Джан Евренол (Can Evrenol)
Актори: Чагатай Улусой (Çagatay Ulusoy), Хазар Ергючлю (Hazar Ergüçlü), Айча Айшин Туран (Ayça Aysin Turan), Мехмет Куртулуш (Mehmet Kurtulus), Окан Ялабик (Okan Yalabik), Юрдаер Окур (Yurdaer Okur), Мехмет Іілмаз Ак (Mehmet Yilmaz Ak), Джихат Суваріоглу (Cihat Suvarioglu) та інші

Сюжет:
Головний герой – чоловік на ім’я Хакан, який є звичайнісіньким жителем Стамбула. Але одного дня виявляється, що він наділений надзвичайними здібностями і стає фактично супергероєм. Усвідомивши своє призначення, він починає битву з силами темряви, які з’являються нізвідки і загрожують руйнацією усієї цивілізації…


Тривалість: 1 серія: 31-45 хв. (цілком серій: 10)
Перелік серій
01) Episode 1
02) Episode 2
03) Episode 3
04) Episode 4
05) Episode 5
06) Episode 6
07) Episode 7
08) Episode 8
09) Episode 9
10) Episode 10
Якість: [Netflix]
Відео:
кодек:
розмір кадру: 1920 х 960
бітрейт: ~13 мб/с

Аудіо # 1:
мова: українська
переклад: багатоголосий закадровий | DniproFilm
кодек: 5.1
бітрейт: 384 кб/с

Аудіо # 2:
мова: турецька
переклад: оригінал
кодек: E- 5.1
бітрейт: 640 кб/с

Субтитри:
мова: турецька
тип: програмні (м'які)
формат: *.srt
Info
General
Unique ID : 166811652092056348129982835823750369116 (0x7D7EC16DEE99B5E22F956D03060F4F5C)
Complete name : E:\Support\The Protector (Season 1) [, 1080p, Ukr, Tur]\The.Protector.s01e01..1080p.Ukr.Tur.
Format :
Format version : Version 4
File size : 4.74 GiB
Duration : 45 min 8 s
Overall bit rate : 15.0 Mb/s
Encoded date : UTC 2019-01-27 19:13:08
Writing application : v30.1.0 ('Forever And More') 64-bit
Writing library : libebml v1.3.6 + v1.4.9

Video
ID : 1
Format : AVC
Format/Info : Advanced Video Codec
Format profile : [email protected]
Format settings : CABAC / 4 Ref Frames
Format settings, CABAC : Yes
Format settings, ReFrames : 4 frames
Codec ID : V_MPEG4/ISO/AVC
Duration : 45 min 8 s
Bit rate : 14.0 Mb/s
Width : 1 920 pixels
Height : 960 pixels
Display aspect ratio : 2.000
Frame rate mode : Constant
Frame rate : 24.000 FPS
Color space : YUV
Chroma subsampling : 4:2:0
Bit depth : 8 bits
Scan type : Progressive
Bits/(Pixel*Frame) : 0.317
Stream size : 4.42 GiB (93%)
Writing library : core 157 r2932+2 (master: 303c484 / tmod: 1b88d0a) [X86_64]
Encoding settings : cabac=1 / ref=4 / deblock=1:-3:-3 / analyse=0x3:0x133 / me=umh / subme=11 / psy=1 / psy_rd=1.05:0.15 / mixed_ref=1 / me_range=48 / chroma_me=1 / trellis=2 / 8x8dct=1 / cqm=0 / deadzone=6,6 / fast_pskip=0 / chroma_qp_offset=-3 / threads=30 / lookahead_threads=7 / sliced_threads=0 / nr=0 / decimate=0 / interlaced=0 / bluray_compat=0 / constrained_intra=0 / bframes=10 / b_pyramid=2 / b_adapt=2 / b_bias=0 / direct=3 / weightb=1 / open_gop=0 / weightp=2 / keyint=250 / keyint_min=24 / scenecut=40 / intra_refresh=0 / rc_lookahead=60 / rc=crf / mbtree=0 / crf=17.6 / qcomp=0.70 / qpmin=0 / qpmax=69 / qpstep=4 / vbv_maxrate=62500 / vbv_bufsize=78125 / crf_max=0.0 / nal_hrd=none / filler=0 / ip_ratio=1.25 / pb_ratio=1.20 / aq=3:0.70
Default : Yes
Forced : No

Audio #1
ID : 2
Format : AC-3
Format/Info : Audio Coding 3
Commercial name : Dolby Digital
Codec ID : A_AC3
Duration : 45 min 7 s
Bit rate mode : Constant
Bit rate : 384 kb/s
Channel(s) : 6 channels
Channel layout : L R C LFE Ls Rs
Sampling rate : 48.0 kHz
Frame rate : 31.250 FPS (1536 SPF)
Bit depth : 16 bits
Compression mode : Lossy
Stream size : 124 MiB (3%)
Title : DniproFilm
Language : Ukrainian
Service kind : Complete Main
Default : Yes
Forced : No

Audio #2
ID : 3
Format : E-AC-3
Format/Info : Enhanced AC-3
Commercial name : Dolby Digital Plus
Codec ID : A_EAC3
Duration : 45 min 8 s
Bit rate mode : Constant
Bit rate : 640 kb/s
Channel(s) : 6 channels
Channel layout : L R C LFE Ls Rs
Sampling rate : 48.0 kHz
Frame rate : 31.250 FPS (1536 SPF)
Compression mode : Lossy
Stream size : 207 MiB (4%)
Language : Turkish
Service kind : Complete Main
Default : No
Forced : No

Text
ID : 4
Format : UTF-8
Codec ID : S_TEXT/UTF8
Codec ID/Info : UTF-8 Plain Text
Duration : 44 min 45 s
Bit rate : 64 b/s
Count of elements : 647
Stream size : 21.1 KiB (0%)
Language : Turkish
Default : No
Forced : No
Скріншоти
Джерело: &
Особиста оцінка: 7 - можна глянути

РЕЛІЗ БЕЗ РЕКЛАМИ


Авторський реліз (завантажувати можна без реєстрації)
 Трекер:    Зареєстрований   

Завантажити / скачати серіал українською



відео для новачків



 Зареєстрований:   2019-01-27 23:18
 Розмір:   40.48 GB 
 Оцінка серіалу:   9.5/10 (Голосів: 4)
   
marovo 
Свій


З нами з: 16.08.11
Востаннє: 17.08.19
Повідомлень: 62

2019-07-16 20:11  
Агов, друзі, допоможіть в роздачі!!!
Ваш часовий пояс: GMT + 2 Години

Нова тема   Відповісти