На межі світів (Border) / Gräns (2018) 1080p Ukr/Swe | Sub Eng

Нові коментарі

Нова тема   Відповісти
Автор Повідомлення
staf777 
Відео Гуртом - підтримка та поширення
Відео Гуртом - підтримка та поширення


З нами з: 16.11.16
Востаннє: 26.04.19
Повідомлень: 2290

2019-01-27 17:04  
На межі світів / Gräns (2018) 1080p Ukr/Swe | Sub Eng

На межі світів (Border) / Gräns (2018) 1080p Ukr/Swe | Sub Eng


Жанр: мелодрама, трилер, фентезі
Країна: Швеція, Данія



Кінокомпанія: Meta Film Stockholm, Spark Film & TV, Kärnfilm
Режисер: Алі Аббасі
Актори: Єва Меландер, Ееро Мілонофф, Йорґен Торссон, Анн Петрен, Стен Льюнггрен, К'єлль Вільхельмсен, Ракель Вармландер, Андреас Кундлер, Матті Боустед

Сюжет:
Молода жінка володіє дивовижним даром визначати людей, які щось приховують. Несподівано вона зустрічає незнайомця, чиї розум і почуття для неї закриті. Але саме йому судилося змінити її долю назавжди, і змусити зрозуміти, що вона знаходиться на межі світів...


Тривалість: 01:45:25
Якість: 1080p

Відео:
кодек:
розмір кадру: 1920 х 804
бітрейт: 9705 кб/с

Аудіо # 1:
мова: українська
переклад: багатоголосий закадровий | студія ААА-sound
кодек: 5.1
бітрейт: 384 кб/с
Інформація про озвучення:
Переклад: Юлія Когут
Режисер та звукорежисер перезапису: Олександр Єфімов
Ролі озвучили: Катерина Буцька, Дмитро Завадський, Юлія Перенчук, Андрій Федінчик, Андрій Альохін.

Фільм озвучено студією ААА-sound у 2018 році на замовлення компанії "Вольга Україна".
Аудіо # 2:
мова: шведська
переклад: оригінал
кодек: 5.1
бітрейт: 448 кб/с

Субтитри:
мова: англійська
тип: програмні (м'які)
формат: *.srt
Info
General
Unique ID : 247293314951919670520873377116174246121 (0xBA0AF5C49BF5B5EAE4044C28156560E9)
Complete name : S:\» HD українською » Фільми в HD\Фентезі\Gräns (2018) 1080p [Ukr][Swe][Hurtom].
Format :
Format version : Version 4
File size : 7.75 GiB
Duration : 1 h 45 min
Overall bit rate : 10.5 Mb/s
Movie name : Gräns (2018) 1080p [Ukr][Swe][Hurtom]
Encoded date : UTC 2019-03-03 10:38:25
Writing application : v30.1.0 ('Forever And More') 64-bit
Writing library : libebml v1.3.6 + v1.4.9
Cover : Yes
Attachments : cover.jpg

Video
ID : 1
Format : AVC
Format/Info : Advanced Video Codec
Format profile : [email protected]
Format settings : CABAC / 5 Ref Frames
Format settings, CABAC : Yes
Format settings, ReFrames : 5 frames
Codec ID : V_MPEG4/ISO/AVC
Duration : 1 h 45 min
Bit rate : 9 705 kb/s
Width : 1 920 pixels
Height : 804 pixels
Display aspect ratio : 2.40:1
Frame rate mode : Constant
Frame rate : 25.000 FPS
Color space : YUV
Chroma subsampling : 4:2:0
Bit depth : 8 bits
Scan type : Progressive
Bits/(Pixel*Frame) : 0.251
Stream size : 7.14 GiB (92%)
Title : rip by -=walledol=-
Writing library : core 157 r2935 545de2f
Encoding settings : cabac=1 / ref=5 / deblock=1:-3:-3 / analyse=0x3:0x133 / me=umh / subme=11 / psy=1 / psy_rd=1.00:0.00 / mixed_ref=1 / me_range=32 / chroma_me=1 / trellis=2 / 8x8dct=1 / cqm=0 / deadzone=21,11 / fast_pskip=0 / chroma_qp_offset=-2 / threads=12 / lookahead_threads=2 / sliced_threads=0 / nr=0 / decimate=1 / interlaced=0 / bluray_compat=0 / constrained_intra=0 / bframes=9 / b_pyramid=2 / b_adapt=2 / b_bias=0 / direct=3 / weightb=1 / open_gop=0 / weightp=2 / keyint=250 / keyint_min=25 / scenecut=40 / intra_refresh=0 / rc_lookahead=60 / rc=2pass / mbtree=0 / bitrate=9705 / ratetol=1.0 / qcomp=0.60 / qpmin=0 / qpmax=69 / qpstep=4 / cplxblur=20.0 / qblur=0.5 / vbv_maxrate=30000 / vbv_bufsize=33000 / nal_hrd=none / filler=0 / ip_ratio=1.40 / pb_ratio=1.30 / aq=3:0.80
Language : Swedish
Default : Yes
Forced : No

Audio #1
ID : 2
Format : AC-3
Format/Info : Audio Coding 3
Commercial name : Dolby Digital
Codec ID : A_AC3
Duration : 1 h 45 min
Bit rate mode : Constant
Bit rate : 384 kb/s
Channel(s) : 6 channels
Channel layout : L R C LFE Ls Rs
Sampling rate : 48.0 kHz
Frame rate : 31.250 FPS (1536 SPF)
Bit depth : 16 bits
Compression mode : Lossy
Stream size : 290 MiB (4%)
Language : Ukrainian
Service kind : Complete Main
Default : Yes
Forced : Yes

Audio #2
ID : 3
Format : AC-3
Format/Info : Audio Coding 3
Commercial name : Dolby Digital
Codec ID : A_AC3
Duration : 1 h 45 min
Bit rate mode : Constant
Bit rate : 448 kb/s
Channel(s) : 6 channels
Channel layout : L R C LFE Ls Rs
Sampling rate : 48.0 kHz
Frame rate : 31.250 FPS (1536 SPF)
Bit depth : 16 bits
Compression mode : Lossy
Stream size : 338 MiB (4%)
Language : Swedish
Service kind : Complete Main
Default : No
Forced : No

Text
ID : 4
Format : UTF-8
Codec ID : S_TEXT/UTF8
Codec ID/Info : UTF-8 Plain Text
Duration : 1 h 43 min
Bit rate : 19 b/s
Count of elements : 567
Stream size : 14.8 KiB (0%)
Language : English
Default : No
Forced : No

Menu
00:00:00.000 : sv:Chapter 1
00:06:18.720 : sv:Chapter 2
00:11:46.079 : sv:Chapter 3
00:16:57.119 : sv:Chapter 4
00:26:18.719 : sv:Chapter 5
00:38:33.120 : sv:Chapter 6
00:50:35.040 : sv:Chapter 7
00:59:54.720 : sv:Chapter 8
01:07:23.040 : sv:Chapter 9
01:18:00.479 : sv:Chapter 10
01:25:11.040 : sv:Chapter 11
01:40:05.760 : sv:Chapter 12
01:45:24.960 : sv:Chapter 13



Підтримати купівлю інших фільмів можна тут.

Подяка пану AngryBirdsUA за матеріал.

Джерело: &



 Трекер:    Зареєстрований   

Завантажити / скачати фільм українською



відео для новачків



 Зареєстрований:   2019-03-03 14:09
 Розмір:   7.75 GB 
 Оцінка фільму:   7.7/10 (Голосів: 26)
   
Інші релізи
bot 
робот


З нами з: 30.09.07
Востаннє: 26.05.05
Повідомлень: 21250

2019-01-31 21:46  
Тему перенесено з Анонси релізів до форуму Фільми в HD


staf777

babinvv 
Новенький


З нами з: 31.03.18
Востаннє: 25.04.19
Повідомлень: 7

2019-02-17 20:14  
подивився повністю,але не раджу до перегляду
alesandroua 
Свій


З нами з: 09.10.16
Востаннє: 23.04.19
Повідомлень: 57

2019-02-18 14:14  
Чудовий фільм для тих людей хто полюбляє розумне кіно.
Згоден часом бридкий, часом огидний але, це для того щод показати контраст між світами: внутрішнім і зовнішним. Люди можуть бути без зовнішніх вад, "носити чорні кеди як в усіх", а всередині бути жахливіше троля, і навпаки: страшні зовні можуть заслуговувати лише теплі відгуки за їх наміри і вчинки. Тому "на межі світів".

staf777 
Відео Гуртом - підтримка та поширення
Відео Гуртом - підтримка та поширення


З нами з: 16.11.16
Востаннє: 26.04.19
Повідомлень: 2290

2019-03-03 14:09  
Оновив до 1080p
Ваш часовий пояс: GMT + 2 Години

Нова тема   Відповісти