Робін Гуд / Robin Hood (2018) 1080p Ukr/Eng | Sub Eng

Нові коментарі

Нова тема   Відповісти
Автор Повідомлення
staf777 
Відео Гуртом - підтримка та поширення
Відео Гуртом - підтримка та поширення


З нами з: 16.11.16
Востаннє: 25.04.19
Повідомлень: 2286

2019-01-27 16:53  
Робін Гуд / Robin Hood (2018) 1080p Ukr/Eng | Sub Eng

Альтернативні постери:



















Жанр: бойовик, пригодницький, трилер
Країна: США



Кінокомпанія: Summit Entertainment, Appian Way, Pixoloid Studios
Режисер: Отто Баферст
Актори: Тарон Еґертон, Джеймі Фокс, Бен Мендельсон, Ів Хьюсон, Джеймі Дорнан, Тім Мінчін, Пол Андерсон, Ф. Мюррей Абрахам

Сюжет:
Загартований війною хрестоносець на ім'я Робін Гуд приєднується до мавританського командира в зухвалому повстанні проти корумпованої англійської монархії.


Тривалість: 01:56:02
Якість: 1080p
Відео:
кодек:
розмір кадру:1920x800
бітрейт: 15,6 Mб/с

Аудіо # 1:
мова: українська
переклад: професійний дубльований | студія Pie Post Production
кодек: 2.0
бітрейт: 192 кб/с

Аудіо # 2:
мова: англійська
переклад: оригінал
кодек: 5.1
бітрейт: 640 кб/с

Субтитри:
мова: англійська
тип: програмні (м'які)
формат: *.srt



Info
General
Unique ID : 263195597335640542550226616800090707746 (0xC601A0D2A14B29A2186B40C9BD22D722)
Complete name : S:\» HD українською » Фільми в HD\Пригоди\Robin Hood (2018) 1080p [UKR][ENG][Hurtom].
Format :
Format version : Version 4
File size : 13.3 GiB
Duration : 1 h 56 min
Overall bit rate : 16.4 Mb/s
Movie name : Robin Hood (2018) 1080p [UKR][ENG][Hurtom]
Encoded date : UTC 2019-02-17 12:48:52
Writing application : v30.1.0 ('Forever And More') 64-bit
Writing library : libebml v1.3.6 + v1.4.9
Cover : Yes
Attachments : cover.jpg

Video
ID : 1
Format : AVC
Format/Info : Advanced Video Codec
Format profile : [email protected]
Format settings : CABAC / 5 Ref Frames
Format settings, CABAC : Yes
Format settings, ReFrames : 5 frames
Codec ID : V_MPEG4/ISO/AVC
Duration : 1 h 56 min
Bit rate : 15.6 Mb/s
Width : 1 920 pixels
Height : 800 pixels
Display aspect ratio : 2.40:1
Frame rate mode : Constant
Frame rate : 23.976 (24000/1001) FPS
Color space : YUV
Chroma subsampling : 4:2:0
Bit depth : 8 bits
Scan type : Progressive
Bits/(Pixel*Frame) : 0.423
Stream size : 12.6 GiB (95%)
Writing library : core 152 r2851kMod ba24899
Encoding settings : cabac=1 / ref=5 / deblock=1:-3:-3 / analyse=0x3:0x133 / me=umh / subme=11 / psy=1 / fade_compensate=0.00 / psy_rd=1.05:0.00 / mixed_ref=1 / me_range=48 / chroma_me=1 / trellis=2 / 8x8dct=1 / cqm=0 / deadzone=21,11 / fast_pskip=0 / chroma_qp_offset=-2 / threads=24 / lookahead_threads=4 / sliced_threads=0 / nr=0 / decimate=0 / interlaced=0 / bluray_compat=0 / constrained_intra=0 / bframes=8 / b_pyramid=2 / b_adapt=2 / b_bias=0 / direct=3 / weightb=1 / open_gop=0 / weightp=2 / keyint=240 / keyint_min=2 / scenecut=40 / intra_refresh=0 / rc=crf / mbtree=0 / crf=17.5000 / qcomp=0.70 / qpmin=0 / qpmax=69 / qpstep=4 / ip_ratio=1.30 / pb_ratio=1.20 / aq=3:0.80
Default : Yes
Forced : No

Audio #1
ID : 2
Format : AC-3
Format/Info : Audio Coding 3
Commercial name : Dolby Digital
Codec ID : A_AC3
Duration : 1 h 56 min
Bit rate mode : Constant
Bit rate : 192 kb/s
Channel(s) : 2 channels
Channel layout : L R
Sampling rate : 48.0 kHz
Frame rate : 31.250 FPS (1536 SPF)
Bit depth : 16 bits
Compression mode : Lossy
Stream size : 159 MiB (1%)
Language : Ukrainian
Service kind : Complete Main
Default : Yes
Forced : Yes

Audio #2
ID : 3
Format : AC-3
Format/Info : Audio Coding 3
Commercial name : Dolby Digital
Codec ID : A_AC3
Duration : 1 h 56 min
Bit rate mode : Constant
Bit rate : 640 kb/s
Channel(s) : 6 channels
Channel layout : L R C LFE Ls Rs
Sampling rate : 48.0 kHz
Frame rate : 31.250 FPS (1536 SPF)
Bit depth : 16 bits
Compression mode : Lossy
Stream size : 532 MiB (4%)
Language : English
Service kind : Complete Main
Default : No
Forced : No

Text
ID : 4
Format : UTF-8
Codec ID : S_TEXT/UTF8
Codec ID/Info : UTF-8 Plain Text
Duration : 1 h 43 min
Bit rate : 47 b/s
Count of elements : 1358
Stream size : 36.4 KiB (0%)
Language : English
Default : No
Forced : No

Дякую пану 11FrYkT за допомогу та відеоряд
Джерело: &
Особиста оцінка: 10 - без зайвих вагань рекомендую всім!


 Трекер:    Зареєстрований   

Завантажити / скачати фільм українською



відео для новачків



 Зареєстрований:   2019-02-17 16:54
 Розмір:   13.31 GB 
 Оцінка фільму:   8/10 (Голосів: 53)
   
Інші релізи
   Робін Гуд / Robin Hood (2018) 1080p H.265 Ukr/Eng | Sub Eng -Star-Lord-  9 / 0   6.35 GB   2019-02-20 21:48 
   Робін Гуд / Robin Hood (2018) Ukr/Eng uafilm.tv  15 / 0   2.18 GB   2019-02-17 10:48 
   Робін Гуд / Robin Hood (2018) AVC Ukr/Eng | Sub Eng 11FrYkT  21 / 0   2.18 GB   2019-02-16 22:10 
   Робін Гуд / Robin Hood (2018) 720p Ukr/Eng | Sub Eng 11FrYkT  13 / 0   5.68 GB   2019-02-16 20:01 
KeryaS 
Свій


З нами з: 01.09.14
Востаннє: 24.04.19
Повідомлень: 143

2019-01-27 20:13  
Був на ньому у кіно, фільм досить посередній. Непогані трюки, непогані актори, але коли зліпили все до купи, то вийшло "ні риба, ні м'ясо".
Siegfried 
VIP


З нами з: 01.11.11
Востаннє: 24.04.19
Повідомлень: 251

2019-01-29 22:23  
Шкода, коли з такої неординарної особи як Р. Гуд ліплять якогось метросексуала з луком.
Просто якась люта неадекватність і насмішка.
1/10

Trololo2017 
Новенький


З нами з: 16.12.17
Востаннє: 22.04.19
Повідомлень: 3

2019-01-31 00:18  
))) Народ, подскажите ,что это было??? Это Робин Гуд из параллельной вселенной или что? Костюмы,женские туфли ,шубки, шляпки ,модные польтишки, шо за нах происходит?))) За действо 5 из 10, а так каша))
Спасибо за картинку и звук!!!

igor911 
Відео Гуртом
Відео Гуртом


З нами з: 18.01.08
Востаннє: 25.04.19
Повідомлень: 12343

2019-01-31 12:30  
Trololo2017, нагадую - в нас спілкуються українською:
Цитата:
2. Правила та обмеження форуму
Всім без винятку заборонено:
2.1 Спілкуватися іншою мовою, аніж літературною українською

Trololo2017 
Новенький


З нами з: 16.12.17
Востаннє: 22.04.19
Повідомлень: 3

2019-01-31 12:54  
Ой,пробачьте.
zdlr 
Свій


З нами з: 07.12.12
Востаннє: 20.04.19
Повідомлень: 54

2019-02-01 01:02  
Якось вже писали - може не слід додавати фільми з субтитрами? Кайфу особливо не додає.
igor911 
Відео Гуртом
Відео Гуртом


З нами з: 18.01.08
Востаннє: 25.04.19
Повідомлень: 12343

2019-02-01 01:17  
zdlr написано:
може не слід додавати фільми з субтитрами? Кайфу особливо не додає

Якщо не "додає кайфу" - то можна просто проходити повз таких релізів і терпляче чекати їх оновлення, а не вказувати всім. По кількості сідів схоже, що для дуже багатьох на першому місці стоїть саме швидкість появи релізу.

Quit_ua 
Частий відвідувач


З нами з: 13.08.18
Востаннє: 25.04.19
Повідомлень: 44

2019-02-01 16:21  
Ще одне розчарування, фільм дратує при перегляді. Тупорилі сцени з маскою і з крадіжками, тупорилий сценарій, тупорилий головний герой. Навіть перестрілки з луками цей фільм не врятували...
ruslanrex5038 
Новенький


З нами з: 13.05.17
Востаннє: 25.04.19
Повідомлень: 4

2019-02-01 16:41  
Quit_ua
Всім доброго дня , згідний фільм жах

boombyte 
Свій


З нами з: 12.04.14
Востаннє: 23.04.19
Повідомлень: 128

2019-02-03 14:43  
Жанр: бойовик, пригоди, трилер, фентезі)
Sender 
Новенький


З нами з: 22.03.09
Востаннє: 20.04.19
Повідомлень: 22

2019-02-09 20:24  
Кітніс змінила стать?
staf777 
Відео Гуртом - підтримка та поширення
Відео Гуртом - підтримка та поширення


З нами з: 16.11.16
Востаннє: 25.04.19
Повідомлень: 2286

2019-02-17 16:58  
замінив торент - вибачаюсь за незручності бо в першому може бути глюк зі звуком 
igor911 
Відео Гуртом
Відео Гуртом


З нами з: 18.01.08
Востаннє: 25.04.19
Повідомлень: 12343

2019-02-17 17:28  
staf777 написано:
бо в першому може бути глюк зі звуком

в першому чому? доріжці? і що означає "може"? нагадаю - релізер має перевіряти свій реліз перед оприлюдненням.

11FrYkT 
Модератор відео


З нами з: 20.02.11
Востаннє: 25.04.19
Повідомлень: 5813

2019-02-17 19:26  
igor911 написано:
в першому чому? доріжці? і що означає "може"?

там недолита доріжка була

O_omarella! 
Свій


З нами з: 14.06.13
Востаннє: 24.04.19
Повідомлень: 116

2019-02-23 10:17  
Фільм на один раз подивитись мона, але весь час бісили негри! Просто неймовірна кількість негрів....((((
Ruryk 
Новенький


З нами з: 21.02.10
Востаннє: 21.04.19
Повідомлень: 1

2019-03-02 22:29  
Підкорегуйте, будь ласка, опис: не "по імені", а "на ім'я". "По імені" - це калька з московитської.
Ваш часовий пояс: GMT + 2 Години

Нова тема   Відповісти