Смертні машини / Mortal Engines (2018) 1080p Ukr/Eng | Sub Eng

Нові коментарі

Нова тема   Відповісти
Автор Повідомлення
staf777 
Відео Гуртом - підтримка та поширення
Відео Гуртом - підтримка та поширення


З нами з: 16.11.16
Востаннє: 20.11.19
Повідомлень: 3034

2019-01-27 15:48  
Смертні машини / Mortal Engines (2018) 1080p Ukr/Eng | Sub Eng


Альтернативні постери:





Жанр: фантастика, фентезі, екшн, пригодницький, трилер
Країна: США, Нова Зеландія



Кінокомпанія: Universal, Media Rights Capital, Scholastic Productions, Silvertongue Films
Режисер: Крістіан Ріверс, Пітер Джексон
Актори: Гера Хілмар, Г'юго Вівінг, Джихе, Роберт Шіен, Стівен Ленг, Лейла Джордж, Френкі Адамс, Карен Пісторіус, Ендрю Лііз, Колін Семон

Сюжет:
Пройшли тисячоліття після того, як світ настиг апокаліпсис. Людство адаптувалося і тепер живе за новими правилами. Гігантські рухомі мегаполіси розсікають пустищі і поглинають маленькі міста заради ресурсів. Том Нетсуорті з нижнього рівня великого Лондона опиняється у смертельній небезпеці, коли на його шляху з'являється бунтарка Естер Шоу, що ховається від закону. Вони не повинні були зустрітися, але їм судилося змінити майбутнє.


Тривалість: 02:08:21
Якість: 1080p
Відео:
кодек:
розмір кадру: 1920x804
бітрейт: 8371 кб/с

Аудіо # 1:
мова: українська
переклад: професійний дубльований | студія LeDoyen
кодек: 2.0 [стерео]
бітрейт: 192 кб/с

Аудіо # 2:
мова: англійська
переклад: оригінал
кодек: 5.1
бітрейт: 448 кб/с

Субтитри # 1: [Forced]
мова: українська
тип: програмні (м'які)
формат: *.srt

Субтитри # 2:
мова: англійська
тип: програмні (м'які)
формат: *.srt
Info
General
Unique ID : 47159740379872565402295377398693611815 (0x237AA2B7C6E0BE21AC262BDDEDF7C927)
Complete name : S:\» HD українською » Фільми в HD\Фентезі\Mortal Engines (2018) 1080p [Ukr, Eng, sub Eng][Hurtom].
Format :
Format version : Version 4
File size : 8.08 GiB
Duration : 2 h 8 min
Overall bit rate : 9 013 kb/s
Movie name : Mortal Engines (2018) 1080p [Ukr, Eng, sub Eng][Hurtom]
Encoded date : UTC 2019-03-05 07:20:34
Writing application : v30.1.0 ('Forever And More') 64-bit
Writing library : libebml v1.3.6 + v1.4.9
Cover : Yes
Attachments : cover.jpg

Video
ID : 1
Format : AVC
Format/Info : Advanced Video Codec
Format profile : [email protected]
Format settings : CABAC / 4 Ref Frames
Format settings, CABAC : Yes
Format settings, ReFrames : 4 frames
Codec ID : V_MPEG4/ISO/AVC
Duration : 2 h 8 min
Bit rate : 8 371 kb/s
Width : 1 920 pixels
Height : 804 pixels
Display aspect ratio : 2.40:1
Frame rate mode : Constant
Frame rate : 23.976 (24000/1001) FPS
Color space : YUV
Chroma subsampling : 4:2:0
Bit depth : 8 bits
Scan type : Progressive
Bits/(Pixel*Frame) : 0.226
Stream size : 7.50 GiB (93%)
Title : CHD
Writing library : core 155 r2867+74 66b5600 t_mod_Custom_2 [[email protected] X86_64]
Encoding settings : cabac=1 / ref=4 / deblock=1:-3:-3 / analyse=0x3:0x113 / me=umh / subme=10 / psy=1 / fade_compensate=0.00 / psy_rd=0.90:0.10 / mixed_ref=1 / me_range=48 / chroma_me=1 / trellis=2 / 8x8dct=1 / cqm=0 / deadzone=21,11 / fast_pskip=0 / chroma_qp_offset=-2 / threads=18 / lookahead_threads=3 / sliced_threads=0 / nr=0 / decimate=1 / interlaced=0 / bluray_compat=0 / constrained_intra=0 / fgo=0 / bframes=8 / b_pyramid=2 / b_adapt=2 / b_bias=0 / direct=3 / weightb=1 / open_gop=0 / weightp=2 / keyint=250 / keyint_min=23 / scenecut=40 / intra_refresh=0 / rc_lookahead=40 / rc=crf / mbtree=0 / crf=19.0000 / qcomp=0.70 / qpmin=0:0:0 / qpmax=69:69:69 / qpstep=4 / vbv_maxrate=35000 / vbv_bufsize=35000 / crf_max=0.0 / nal_hrd=none / filler=0 / ip_ratio=1.40 / pb_ratio=1.30 / aq=3:0.90 / aq-sensitivity=10.00 / aq-factor=1.00:1.00:1.00 / aq2=0 / aq3=2:[0.50:0.50]:[0.50:0.50]:[0.50:0.50]:[0.50:0.50] / aq3-sensitivity=10.00 / aq3-factor=[1.00:1.00]:[1.00:1.00]:[1.00:1.00] / aq3-boundary=192:64:24
Language : English
Default : Yes
Forced : No
Color range : Limited
Matrix coefficients : BT.709

Audio #1
ID : 2
Format : AC-3
Format/Info : Audio Coding 3
Commercial name : Dolby Digital
Codec ID : A_AC3
Duration : 2 h 8 min
Bit rate mode : Constant
Bit rate : 192 kb/s
Channel(s) : 2 channels
Channel layout : L R
Sampling rate : 48.0 kHz
Frame rate : 31.250 FPS (1536 SPF)
Bit depth : 16 bits
Compression mode : Lossy
Stream size : 176 MiB (2%)
Language : Ukrainian
Service kind : Complete Main
Default : Yes
Forced : Yes

Audio #2
ID : 3
Format : AC-3
Format/Info : Audio Coding 3
Commercial name : Dolby Digital
Codec ID : A_AC3
Duration : 2 h 8 min
Bit rate mode : Constant
Bit rate : 448 kb/s
Channel(s) : 6 channels
Channel layout : L R C LFE Ls Rs
Sampling rate : 48.0 kHz
Frame rate : 31.250 FPS (1536 SPF)
Bit depth : 16 bits
Compression mode : Lossy
Stream size : 411 MiB (5%)
Title : Original
Language : English
Service kind : Complete Main
Default : No
Forced : No

Text #1
ID : 4
Format : UTF-8
Codec ID : S_TEXT/UTF8
Codec ID/Info : UTF-8 Plain Text
Duration : 1 h 33 min
Bit rate : 0 b/s
Count of elements : 10
Stream size : 396 Bytes (0%)
Language : Ukrainian
Default : Yes
Forced : Yes

Text #2
ID : 5
Format : UTF-8
Codec ID : S_TEXT/UTF8
Codec ID/Info : UTF-8 Plain Text
Duration : 1 h 57 min
Bit rate : 74 b/s
Count of elements : 1332
Stream size : 63.8 KiB (0%)
Language : English
Default : No
Forced : No

Menu
00:00:00.000 : :绗?01 绔?
00:09:24.397 : :绗?02 绔?
00:16:13.306 : :绗?03 绔?
00:24:20.626 : :绗?04 绔?
00:31:24.591 : :绗?05 绔?
00:35:53.068 : :绗?06 绔?
00:41:27.819 : :绗?07 绔?
00:44:53.816 : :绗?08 绔?
00:50:16.805 : :绗?09 绔?
00:54:21.175 : :绗?10 绔?
01:00:51.398 : :绗?11 绔?
01:07:12.070 : :绗?12 绔?
01:11:12.852 : :绗?13 绔?
01:17:37.736 : :绗?14 绔?
01:25:25.620 : :绗?15 绔?
01:33:30.396 : :绗?16 绔?
01:39:28.546 : :绗?17 绔?
01:47:58.263 : :绗?18 绔?
01:52:11.558 : :绗?19 绔?
01:58:33.523 : :绗?20 绔?




Підтримати купівлю інших фільмів можна тут.



Подяка пану AngryBirdsUA за доріжку.
Джерело: &
Особиста оцінка: 10 - без зайвих вагань рекомендую всім!


 Трекер:    Зареєстрований   

Завантажити / скачати фільм українською



відео для новачків



 Зареєстрований:   2019-03-05 09:41
 Розмір:   8.08 GB 
 Оцінка фільму:   8.4/10 (Голосів: 103)
   
lion822 
Поважний учасник


З нами з: 27.12.11
Востаннє: 21.11.19
Повідомлень: 182

2019-01-27 17:18  
роздули бiтрейт аж на 11 гiг але якiсть не стала кращою, нi чим не вiдрiзняеться вiд рiпу на 3,68
GoDLiKeR20 
Свій


З нами з: 21.06.13
Востаннє: 20.11.19
Повідомлень: 75

2019-01-28 01:50  
Дивився в кінотеатрі. Сама концепція крута і має потенціал, є спецеффекти, АЛЕ у фільмі все дуже банально і по-дитячому, плоскі персонажі, примітивний сюжетик.
prostonikobelik 
Новенький


З нами з: 10.09.18
Востаннє: 25.08.19
Повідомлень: 6

2019-02-02 11:12  
Довго очікував на фільм,а він курячий пшик.Ніц невартий.
shroud 
Частий відвідувач


З нами з: 06.07.11
Востаннє: 13.11.19
Повідомлень: 34

2019-02-02 16:32  
це шикарнюччьо! )
ей, зануди, ви занадо чи обережні в коментах, чи просто занадто дорослі, бо мінусуєте...
це ж пристойний фільм, має право почати окрему гілку альтернативного кіно...

я вражений Wink (1)

cjcat 
Новенький


З нами з: 27.01.17
Востаннє: 28.05.19
Повідомлень: 3

2019-02-02 19:50  
GoDLiKeR20 написано:
АЛЕ у фільмі все дуже банально і по-дитячому, плоскі персонажі, примітивний сюжетик


Я, мабуть, Вас здивую, але фільм знятий по дтиячій книзі)
Моя думка щодо фільму приблизно така сама як у вас - концепція реально крута, проте фільму трохи не вистачило епічності.
Фільм знятий достатньо близько до книги. Маю надію, що режиссер зробить висновки, 2 і 3 частина не тільки будуть, але й будуть більш крутішими.

Cayman1993 
Новенький


З нами з: 04.01.13
Востаннє: 20.11.19
Повідомлень: 13

2019-02-03 00:49  
cjcat
це якщо після такого прокату буде 2 частина

Lite_an 
Новенький


З нами з: 02.01.15
Востаннє: 16.11.19
Повідомлень: 18

2019-02-07 19:22  
Гарне кіно
wolx 
Новенький


З нами з: 24.08.11
Востаннє: 17.11.19
Повідомлень: 2

2019-02-08 22:12  
гівуно, шизофренія
staf777 
Відео Гуртом - підтримка та поширення
Відео Гуртом - підтримка та поширення


З нами з: 16.11.16
Востаннє: 20.11.19
Повідомлень: 3034

2019-02-14 14:33  
Замінив відео на 1080p та замінив звук на кращій 
Fenol 
Новенький


З нами з: 06.08.08
Востаннє: 16.11.19
Повідомлень: 1

2019-02-14 18:52  
коли чекати 4к?
exitvray 
Свій


З нами з: 17.02.13
Востаннє: 11.11.19
Повідомлень: 56

2019-02-14 23:07  
Таке собі,навіть немаю бажання описувати-що не так,чому не так,просто 6/10,
Siegfried 
VIP


З нами з: 01.11.11
Востаннє: 18.11.19
Повідомлень: 281

2019-02-15 12:38  
Досить непоганий пригодницький фільм.

Великі міста-механізми + Terminator місцевого розливу витягують фільм від очевидного провалу, бо до сценарію і постановки є питання, ну і з гнітючою музикою звукорежисер перебрав.

Раз точно вартий перегляду.

5/10

limit 
Новенький


З нами з: 09.03.12
Востаннє: 19.11.19
Повідомлень: 16

2019-02-17 00:52  
Мені фільм сподобався. За основу взята дитяча книга, але її не читав і зміну сюжету не вкажу. Гарна ідея постапокаліпсису. Повчальна. Прикольно показано Майбутній світ, особливо їхнє ставлення до наших буденних речей.
В принципі все для екшену є, проте попадаються тупуваті моменти. Це ж фільм.
Як фанат постапокаліпсису, вважаю одним з кращих варіантів та рекомендую до перегляду

staf777 
Відео Гуртом - підтримка та поширення
Відео Гуртом - підтримка та поширення


З нами з: 16.11.16
Востаннє: 20.11.19
Повідомлень: 3034

2019-03-05 09:44  
05.03.2019 Роздачу оновлено

Замінив відео на 1080р

Анонім001 
Новенький


З нами з: 12.02.19
Востаннє: 05.03.19
Повідомлень: 59

2019-03-05 14:00  
Ремукс буде? Дивитись графоністі блокбастери з бітрейтом менше 20 000 - себе не поважати.
staf777 
Відео Гуртом - підтримка та поширення
Відео Гуртом - підтримка та поширення


З нами з: 16.11.16
Востаннє: 20.11.19
Повідомлень: 3034

2019-03-05 16:03  
Степовий Чугайстер
Ще не бачив ремукса в інтернеті - що правда не дуже шукав

sandman 
VIP


З нами з: 12.08.12
Востаннє: 20.11.19
Повідомлень: 285

2019-03-05 18:22  
staf777 написано:
що правда не дуже шукав

якщо знайдете, можна очікувати реліз? реально хочеться таку картину в ремуксі

staf777 
Відео Гуртом - підтримка та поширення
Відео Гуртом - підтримка та поширення


З нами з: 16.11.16
Востаннє: 20.11.19
Повідомлень: 3034

2019-03-05 18:43  
sandman
Якщо ні хто не випередить - то так

ngxwinger 
Свій


З нами з: 19.01.14
Востаннє: 21.11.19
Повідомлень: 56

2019-03-08 19:07  
Нічого не очікував, проте фільм сподобався. Історія не нова, але все одно за героїв переживаєш. Десь на 8 з 10, якщо завищених сподівань не було.
maleficmax 
Свій


З нами з: 18.04.12
Востаннє: 07.11.19
Повідомлень: 83

2019-03-11 13:14  
Звук з тунця чи лінійний?
Ваш часовий пояс: GMT + 2 Години

Нова тема   Відповісти