Сімейне пограбування / Mes trésors (2017) Remux 1080p 2xUkr/Fre

Нові коментарі

Нова тема   Відповісти
Автор Повідомлення
staf777 
Відео Гуртом - підтримка та поширення
Відео Гуртом - підтримка та поширення


З нами з: 16.11.16
Востаннє: 24.05.19
Повідомлень: 2382

2019-01-27 15:03  
Сімейне пограбування / Mes trésors (2017) Remux 1080p 2xUkr/Fre

Сімейне пограбування / Mes trésors (2017) Remux 1080p 2xUkr/Fre


Жанр: комедія
Країна: Франція



Кінокомпанія: Radar Films, Forecast Pictures, SND Films
Режисер: Паскаль Бюрдо
Актори: Жан Рено, Рем Керісі, Каміль Шаму, Паскаль Демолон, Бруно Санчес, Жан Рейнес, Маріон Брієт, Фамке Янссен, Джудж Т'єррі, Зіна Есепсьюк

Сюжет:
Дві абсолютні протилежності, дівчата Керолайн і Керолл (в дубляжі Анжеліка і Анжела) дізнаються, що вони – зведені сестри, а їх батько зовсім недавно помер і заповів дочкам будиночок у відомому Куршавелі. Серед заметів вони знаходять цю хатинку ... а разом з нею і живого тата Патріка. Він вирішив зібрати своїх дочок, щоб провернути одну справу – вкрасти скрипку Страдіварі вартістю 15 мільйонів. Патрік продумав геніальний сценарій, як це зробити, але все пішло зовсім не за планом... Чи зможе сімейка дістати коштовність?


Тривалість: 01:30:39
Якість: Remux 1080p | RUS Transfer |

Відео:
кодек:
розмір кадру:1920x1080
бітрейт: 19.5 Mб/с

Аудіо #1:
мова: українська
переклад: професійний дубльований
кодек: 2.0
бітрейт: 192 кб/с

Аудіо #2:
мова: українська
переклад: багатоголосий закадровий
кодек: 2.0 (стерео)
бітрейт: 192 кб/с

Аудіо # 3:
мова: французька
переклад: оригінал
кодек: 5.1
бітрейт: 384 кб/с

Info
Код:
General
Unique ID                   : 135253168801085755624584856797831540218 (0x65C0D012CA7C2AC4A565EE24A1D8ADFA)
Complete name               : S:\» HD українською » Фільми в HD\Комедія\Mes trésors (2017) Remux 1080p [2xUkr][Fre][Hurtom].
Format                      :
Format version              : Version 4
File size                   : 12.9 GiB
Duration                    : 1 h 30 min
Overall bit rate mode       : Variable
Overall bit rate            : 20.3 Mb/s
Movie name                  : Mes trésors (2017) Remux 1080p [2xUkr][Fre][Hurtom]
Encoded date                : UTC 2019-01-27 16:30:13
Writing application         : v30.1.0 ('Forever And More') 64-bit
Writing library             : libebml v1.3.6 + v1.4.9
Cover                       : Yes
Attachments                 : cover

Video
ID                          : 1
Format                      : AVC
Format/Info                 : Advanced Video Codec
Format profile              : [email protected]
Format settings             : CABAC / 2 Ref Frames
Format settings, CABAC      : Yes
Format settings, ReFrames   : 2 frames
Format settings, GOP        : M=2, N=13
Codec ID                    : V_MPEG4/ISO/AVC
Duration                    : 1 h 30 min
Bit rate mode               : Variable
Bit rate                    : 19.5 Mb/s
Maximum bit rate            : 22.0 Mb/s
Width                       : 1 920 pixels
Height                      : 1 080 pixels
Display aspect ratio        : 16:9
Frame rate mode             : Constant
Frame rate                  : 24.000 FPS
Color space                 : YUV
Chroma subsampling          : 4:2:0
Bit depth                   : 8 bits
Scan type                   : Progressive
Bits/(Pixel*Frame)          : 0.393
Stream size                 : 12.4 GiB (96%)
Language                    : Russian
Default                     : Yes
Forced                      : No

Audio #1
ID                          : 2
Format                      : AC-3
Format/Info                 : Audio Coding 3
Commercial name             : Dolby Digital
Codec ID                    : A_AC3
Duration                    : 1 h 30 min
Bit rate mode               : Constant
Bit rate                    : 192 kb/s
Channel(s)                  : 2 channels
Channel layout              : L R
Sampling rate               : 48.0 kHz
Frame rate                  : 31.250 FPS (1536 SPF)
Bit depth                   : 16 bits
Compression mode            : Lossy
Stream size                 : 124 MiB (1%)
Title                       : Dub [Pie Post Production, Line] 2.0 192 Kbps
Language                    : Ukrainian
Service kind                : Complete Main
Default                     : Yes
Forced                      : Yes

Audio #2
ID                          : 3
Format                      : AC-3
Format/Info                 : Audio Coding 3
Commercial name             : Dolby Digital
Codec ID                    : A_AC3
Duration                    : 1 h 30 min
Bit rate mode               : Constant
Bit rate                    : 192 kb/s
Channel(s)                  : 2 channels
Channel layout              : L R
Sampling rate               : 48.0 kHz
Frame rate                  : 31.250 FPS (1536 SPF)
Bit depth                   : 16 bits
Compression mode            : Lossy
Stream size                 : 124 MiB (1%)
Title                       : MVO [Volia CINE+] 2.0 [stereo] 192 Kbps
Language                    : Ukrainian
Service kind                : Complete Main
Default                     : No
Forced                      : No

Audio #3
ID                          : 4
Format                      : AC-3
Format/Info                 : Audio Coding 3
Commercial name             : Dolby Digital
Codec ID                    : A_AC3
Duration                    : 1 h 30 min
Bit rate mode               : Constant
Bit rate                    : 384 kb/s
Channel(s)                  : 6 channels
Channel layout              : L R C LFE Ls Rs
Sampling rate               : 48.0 kHz
Frame rate                  : 31.250 FPS (1536 SPF)
Bit depth                   : 16 bits
Compression mode            : Lossy
Stream size                 : 249 MiB (2%)
Title                       : Original, 5.1 384 kbps
Language                    : French
Service kind                : Complete Main
Default                     : No
Forced                      : No
Підтримати купівлю інших фільмів можна тут.


Подяка пану Covenant за доріжку №1 та пану Sando7 за запис доріжки №2.

Джерело: & інше
Особиста оцінка: 0 - не дивився


Золотий реліз (завантажене не впливає на рейтинг)
 Трекер:    Зареєстрований   

Завантажити / скачати фільм українською



відео для новачків



 Зареєстрований:   2019-01-27 20:00
 Розмір:   12.86 GB 
 Оцінка фільму:   7.9/10 (Голосів: 9)
   
Інші релізи
bot 
робот


З нами з: 30.09.07
Востаннє: 26.05.05
Повідомлень: 21384

2019-01-27 20:00  
Тему перенесено з Анонси релізів до форуму Фільми в HD


staf777

Ваш часовий пояс: GMT + 2 Години

Нова тема   Відповісти