Кандіс Ренуар - детектив із декрету (Сезони 1-2) / Candice Renoir (Seasons 1-2) (2013-2014) 1080p Ukr/Fre

Нові коментарі

Нова тема   Відповісти
Автор Повідомлення
Anonymous 







2019-01-27 14:04  
Кандіс Ренуар - детектив із декрету (Сезони 1-2) / Candice Renoir (Seasons 1-2) (2013-2014) 1080p Ukr/Fre

Кандіс Ренуар - детектив із декрету (Сезони 1-2) / Candice Renoir (Seasons 1-2) (2013-2014) 1080p Ukr/Fre


Жанр: детектив, драма, комедія, сімейний
Країна: Франція



Кінокомпанія: France 2
Режисер: Ніколас Пікард (Nicolas Picard ), Олів’є Барма (Olivier Barma)
Актори: Сесіль Буа (Cécile Bois), Рафаель Ланґле (Raphaël Lenglet), Мамед Арескі (Mhamed Arezki), Гайя Верней (Gaya Verneuil), Дельфін Ріш (Delphine Rich), Саміра Лаккаб (Samira Lachhab) та інші

Сюжет:
Героїня фільму 10 років прожила з чоловіком в Сінгапурі. Сімейний корабель стрімко йде на дно, подружжя вирішило розлучитися. Четверо дітей – Емма, Жюль, Лео і Мартін, разом з мамою повертаються до Франції. Щоб прогодувати нащадків Кандіс Ренуар збирається повернутися на службу, до заміжжя вона була майором кримінальної поліції Парижа. За період її відсутності багато що змінилося, техніка пішла далеко вперед, а ось професіоналізм і логіка як і раніше в ціні.


Тривалість: 1 серія: ~50 хв. (цілком серій: 18)
Перелік серій
Сезон 1:
01) Стережіться тихої води / Il faut se méfier de l'eau qui dort
02) Що більше, то краще / Plus on est de fous plus on rit?
03) Головне напитись до нестями / Pourvu qu'on ait l'ivresse
04) Кожен отримає по заслугах / À tout seigneur tout honneur
05) Хто іншому яму копає, той сам у неї впадає / Tel est pris qui croyait prendre
06) Заможний той, в кого немає боргів / Est assez riche qui ne doit rien
07) Біда тому, від кого приходять спокуси / Malheur à celui par qui le scandale arrive
08) Мета виправдовує засоби / La fin justifie les moyens

Сезон 2:
01) Вустами маляти промовляє істина / La verite sort de la bouche des enfants
02) За двома зайцями поженешся, жодного не упіймаєш / Qui trop embrasse mal etreint
03) Серцю не накажеш / Le coeur a ses raisons
04) Чуже добро не гріє / Bien mal acquis ne profite jamais
05) Людина людині - вовк / L'homme est un loup pour l'homme
06) Не всі святі, що до церкви ходять / L'habit ne fait pas le moine
07) Кожен птах свою пісню співає / La plus belle fille ne peut donner que ce qu'elle a
08) Не буває троянд без шипів / La rose est amie de l'epine
09) Мовчання - золото / Le silence est d'or
10) Мовчання - знак згоди / Qui ne dit mot consent
Якість:
Відео:
кодек:
розмір кадру: 1920 х 1080
бітрейт: ~11 мб/с

Аудіо # 1:
мова: українська
переклад: багатоголосий закадровий
кодек: 2.0
бітрейт: 192 кб/с

Аудіо # 2:
мова: французька
переклад: оригінал
кодек: E- 2.0
бітрейт: 224 кб/с

Джерело озвучення:
Info
General
Unique ID : 4537825011763747503566697587918879830 (0x369F40BF1B92FC9E8CDD2D1BC55BC56)
Complete name : E:\Support\Candice Renoir [, 1080p, Ukr, Fre]\Season 1\Candice Renoir. s01e01. Il faut se méfier de l'eau qui dort.
Format :
Format version : Version 4
File size : 4.28 GiB
Duration : 49 min 36 s
Overall bit rate mode : Variable
Overall bit rate : 12.4 Mb/s
Encoded date : UTC 2019-01-27 09:50:33
Writing application : v30.1.0 ('Forever And More') 64-bit
Writing library : libebml v1.3.6 + v1.4.9

Video
ID : 1
Format : AVC
Format/Info : Advanced Video Codec
Format profile : [email protected]
Format settings : CABAC / 4 Ref Frames
Format settings, CABAC : Yes
Format settings, ReFrames : 4 frames
Codec ID : V_MPEG4/ISO/AVC
Duration : 49 min 36 s
Bit rate mode : Variable
Bit rate : 11.9 Mb/s
Maximum bit rate : 15.0 Mb/s
Width : 1 920 pixels
Height : 1 080 pixels
Display aspect ratio : 16:9
Frame rate mode : Constant
Frame rate : 25.000 FPS
Color space : YUV
Chroma subsampling : 4:2:0
Bit depth : 8 bits
Scan type : Progressive
Bits/(Pixel*Frame) : 0.230
Stream size : 4.13 GiB (97%)
Language : French
Default : Yes
Forced : No
Color range : Limited
Color primaries : BT.709
Transfer characteristics : BT.709
Matrix coefficients : BT.709

Audio #1
ID : 2
Format : AC-3
Format/Info : Audio Coding 3
Commercial name : Dolby Digital
Codec ID : A_AC3
Duration : 49 min 36 s
Bit rate mode : Constant
Bit rate : 192 kb/s
Channel(s) : 2 channels
Channel layout : L R
Sampling rate : 48.0 kHz
Frame rate : 31.250 FPS (1536 SPF)
Bit depth : 16 bits
Compression mode : Lossy
Stream size : 68.1 MiB (2%)
Title : СТБ
Language : Ukrainian
Service kind : Complete Main
Default : Yes
Forced : No

Audio #2
ID : 3
Format : E-AC-3
Format/Info : Enhanced AC-3
Commercial name : Dolby Digital Plus
Codec ID : A_EAC3
Duration : 49 min 36 s
Bit rate mode : Constant
Bit rate : 224 kb/s
Channel(s) : 2 channels
Channel layout : L R
Sampling rate : 48.0 kHz
Frame rate : 31.250 FPS (1536 SPF)
Compression mode : Lossy
Stream size : 79.5 MiB (2%)
Language : French
Service kind : Complete Main
Default : No
Forced : No
Скріншоти

Українську доріжку до першого сезону взято з релізу https://toloka.to/t98317

Джерело: &
Особиста оцінка: 8 - мені сподобалося


Бронзовий реліз (на рейтинг впливає 75% завантаженого)
 Трекер:    Зареєстрований   

Завантажити / скачати серіал українською



відео для новачків



 Зареєстрований:   2019-03-12 21:37
 Розмір:   80.52 GB 
 Оцінка серіалу:   10/10 (Голосів: 8)
   
havryk 
VIP


З нами з: 29.06.10
Востаннє: 19.08.19
Повідомлень: 820

2019-01-27 14:45  
Anonymous написано:
Ukr/Fre

1080p

Anonymous 







2019-01-27 15:29  
havryk написано:
1080p

Дякую.

Anonymous 







2019-03-12 21:38  
Додав другий сезон.
leicheman 
Відео Гуртом - підтримка та поширення
Відео Гуртом - підтримка та поширення


З нами з: 03.07.14
Востаннє: 19.08.19
Повідомлень: 3890

2019-07-16 22:52  
укр.постер
постер

Ваш часовий пояс: GMT + 2 Години

Нова тема   Відповісти