Замерзлі / Frozen (2010) Remux 1080p 2xUkr/Eng | Sub Eng

Нові коментарі

Нова тема   Відповісти
Автор Повідомлення
staf777 
Відео Гуртом - підтримка та поширення
Відео Гуртом - підтримка та поширення


З нами з: 16.11.16
Востаннє: 23.04.19
Повідомлень: 2285

2019-01-27 10:57  
Замерзлі / Frozen (2010) Remux 1080p 2xUkr/Eng | Sub Eng

Замерзлі / Frozen (2010) Remux 1080p 2xUkr/Eng | Sub Eng


Жанр: драма, трилер
Країна: США



Кінокомпанія: Anchor Bay Films
Режисер: Адам Грін
Актори: Емма Белл, Шон Ешмор, Кевін Зегерс, Ед Екерман, Райлі Вандербілт, Кейн Ходдер, Адам Джонсон, Кріс Йорк, Педер Мелхьоз, Уілл Берретт

Сюжет:
Не вдивляйтеся в безодню, інакше безодня почне вдивлятися у вас. Три молоді людини — сноубордисти і лижник навіть і не підозрювали, як це може бути в реальності, і яке жахливе страхіття чекає на них. Вони застрягають на підйомнику, і веселий вечір в засніжених зимових горах перетворюється на пекло. Страшний холод і обпалюючий вітер несуть загибель нещасним, що опинилися в пастці на величезній висоті. Час працює проти них — ніхто не прийде на допомогу, адже гірськолижний курорт закритий на декілька днів. Залишається одне — рятуватися самим. Але щоб врятуватися — потрібно перемогти жах цієї ночі! Весь жах...


Тривалість: 01:33:18
Якість: Remux 1080p

Відео:
кодек:
розмір кадру: 1920x1080
бітрейт: 27,6 Mб/с

Аудіо # 1: &
мова: українська
переклад: багатоголосий закадровий
кодек: 2.0
бітрейт: 192 кб/с

Аудіо # 2:
мова: українська
переклад: багатоголосий закадровий
кодек: 2.0
бітрейт: 192 кб/с

Аудіо # 3:
мова: англійська
переклад: оригінал
кодек: -HD MA 5.1
бітрейт: 4063 кб/с

Субтитри:
мова: англійська
тип: програмні (м'які)
формат: *.srt
Info
General
Unique ID : 261295388124372233331419691285374935459 (0xC493A9467E6F5647B990000E7E05A1A3)
Complete name : S:\» HD українською » Фільми в HD\Трилер\Frozen (2010) Remux 1080p [2xUKR][ENG][Hurtom].
Format :
Format version : Version 4
File size : 20.9 GiB
Duration : 1 h 33 min
Overall bit rate mode : Variable
Overall bit rate : 32.0 Mb/s
Movie name : Frozen (2010) Remux 1080p [2xUKR][ENG][Hurtom]
Encoded date : UTC 2019-01-27 08:47:35
Writing application : v30.1.0 ('Forever And More') 64-bit
Writing library : libebml v1.3.6 + v1.4.9
Cover : Yes
Attachments : cover.jpg

Video
ID : 1
Format : AVC
Format/Info : Advanced Video Codec
Format profile : [email protected]
Format settings : CABAC / 2 Ref Frames
Format settings, CABAC : Yes
Format settings, ReFrames : 2 frames
Codec ID : V_MPEG4/ISO/AVC
Duration : 1 h 33 min
Bit rate mode : Variable
Bit rate : 27.6 Mb/s
Width : 1 920 pixels
Height : 1 080 pixels
Display aspect ratio : 16:9
Frame rate mode : Constant
Frame rate : 23.976 (24000/1001) FPS
Color space : YUV
Chroma subsampling : 4:2:0
Bit depth : 8 bits
Scan type : Progressive
Bits/(Pixel*Frame) : 0.555
Stream size : 18.0 GiB (86%)
Title : [email protected]
Language : English
Default : Yes
Forced : No

Audio #1
ID : 2
Format : AC-3
Format/Info : Audio Coding 3
Commercial name : Dolby Digital
Codec ID : A_AC3
Duration : 1 h 33 min
Bit rate mode : Constant
Bit rate : 192 kb/s
Channel(s) : 2 channels
Channel layout : L R
Sampling rate : 48.0 kHz
Frame rate : 31.250 FPS (1536 SPF)
Bit depth : 16 bits
Compression mode : Lossy
Stream size : 128 MiB (1%)
Title : [UKR-DVD-MVO]
Language : Ukrainian
Service kind : Complete Main
Default : Yes
Forced : Yes

Audio #2
ID : 3
Format : AC-3
Format/Info : Audio Coding 3
Commercial name : Dolby Digital
Codec ID : A_AC3
Duration : 1 h 33 min
Bit rate mode : Constant
Bit rate : 192 kb/s
Channel(s) : 2 channels
Channel layout : L R
Sampling rate : 48.0 kHz
Frame rate : 31.250 FPS (1536 SPF)
Bit depth : 16 bits
Compression mode : Lossy
Stream size : 128 MiB (1%)
Title : [UKR-NLO-MVO]
Language : Ukrainian
Service kind : Complete Main
Default : No
Forced : No

Audio #3
ID : 4
Format : XLL
Format/Info : Digital Theater Systems
Commercial name : -HD Master Audio
Codec ID : A_DTS
Duration : 1 h 33 min
Bit rate mode : Variable
Bit rate : 4 063 kb/s
Channel(s) : 6 channels
Channel layout : C L R Ls Rs LFE
Sampling rate : 48.0 kHz
Frame rate : 93.750 FPS (512 SPF)
Bit depth : 24 bits
Compression mode : Lossless
Stream size : 2.65 GiB (13%)
Language : English
Default : No
Forced : No

Text
ID : 5
Format : UTF-8
Codec ID : S_TEXT/UTF8
Codec ID/Info : UTF-8 Plain Text
Duration : 1 h 27 min
Bit rate : 59 b/s
Count of elements : 1242
Stream size : 38.1 KiB (0%)
Language : English
Default : No
Forced : No

Menu
00:00:00.000 : en:00:00:00.000
00:12:13.899 : en:00:12:13.899
00:19:57.112 : en:00:19:57.112
00:31:07.740 : en:00:31:07.740
00:38:15.376 : en:00:38:15.376
00:51:03.268 : en:00:51:03.268
00:54:51.663 : en:00:54:51.663
00:58:43.978 : en:00:58:43.978
01:05:30.593 : en:01:05:30.593
01:18:49.975 : en:01:18:49.975
01:25:42.846 : en:01:25:42.846
01:28:31.848 : en:01:28:31.848



Джерело: & RUTOR
Особиста оцінка: 10 - без зайвих вагань рекомендую всім!


Золотий реліз (завантажене не впливає на рейтинг)
 Трекер:    Зареєстрований   

Завантажити / скачати фільм українською



відео для новачків



 Зареєстрований:   2019-01-27 21:55
 Розмір:   20.89 GB 
 Оцінка фільму:   8.3/10 (Голосів: 12)
   
Інші релізи
   Замерзлі / Frozen (2010) AVC 2xUkr/Eng | Sub Eng staf777  2 / 0   2.18 GB   2018-11-26 11:19 
   Замерзлі / Frozen (2010) 2xUkr/Eng krigg070  1 / 0   1.71 GB   2016-01-05 21:47 
   Замерзлі / Frozen (2010) 720p Ukr/Eng | Sub Eng leroykendall  4 / 0   5.75 GB   2012-03-04 18:43 
Ваш часовий пояс: GMT + 2 Години

Нова тема   Відповісти