Зоряний десант / Starship Troopers (1997) Remux 1080p 2хUkr/Eng | Sub Eng

Нові коментарі

Нова тема   Відповісти
Автор Повідомлення
MakRA 
VIP


З нами з: 11.11.18
Востаннє: 13.08.20
Повідомлень: 1092

2019-01-27 02:24  
Зоряний десант / Starship Troopers (1997) Remux 1080p 2хUkr/Eng | Sub Eng

Зоряний десант / Starship Troopers (1997) Remux 1080p 2хUkr/Eng | Sub Eng

Український постер:



Жанр: фантастика, екшн, бойовик
Країна: США



Кінокомпанія: TriStar Pictures, Touchstone Pictures, Big Bug Pictures, Digital Image Associates
Режисер: Пол Верховен [Paul Verhoeven]
Актори: Каспер Ван Дін [Casper Van Dien], Діна Мейер [Dina Meyer], Деніс Річардс [Denise Richards], Джейк Бьюзі [Jake Busey], Ніл Патрік Харріс [Neil Patrick Harris], Кленсі Браун [Clancy Brown], Сет Гілл [Seth Gilliam], Патрік Малдун [Patrick Muldoon], Майкл Айронсайд [Michael Ironside], Ру МакКленахан [Rue McClanahan].

Сюжет:
Дія фільму відбувається в далекому майбутньому. Згідно із законами, що діють на Землі, громадянство надається лише після служби в армії. Громадянин отримує виборче право, пільги, оплату навчання, позачерговий дозвіл мати дітей, можливість займатися політикою.
Тим часом, над людством нависнула смертельна загроза. Полчища гігантських розумних арахнідів (комахоподібних істот) з далекої зоряної системи Клендату загрожують Землі, обстрілюючи її метеоритами. Відбуваються криваві сутички за колонізовані планети.
Четверо колишніх однокурсників: солдати елітного підрозділу Джоні Ріко і Діззі Флорес, пілот Кармен Ібанес і вчений Карл Дженкінс у складі зоряного десанта землян на космічній військовій базі "Тікондерога" відправляються на планету, щоб у вирішальній сутичці знищити арахнідів та врятувати людську расу.
Десантники майбутнього тут… і їхні вороги не люди.

Цікаві факти:


Фільм знятий за мотивами роману Роберта Гайнлайна "Зоряний десант" (Starship Troopers, 1959).
Спочатку за сценарієм ручним звіром Карла мала бути жаба.
Режисер Пол Верховен визнав, що не прочитав оригінальний роман до кінця, тому що після перших кількох глав йому стало нудно та депресивно.
Улюблений фільм режисера Пола Верховена, за його власним визнанням.
На випускному вечорі Девід Боуї грає пісню під назвою "I Have Not Been To Oxford Town". Текст пісні переробили трохи, щоб звернутися до двадцять третього століття, а не 21-го.
Кавер-версію цієї пісні, до речі, виконкє Зое Поледуріс, старша донька композитора Безіла Поледуріса.
Ібанез — це іспанська версія прізвища "Еванс".
За прототип оформлення фільму було узято стрічку Лені Ріфеншталь "Тріумф волі"
У 2012 р. журнал Slant Magazine помістив фільм на 20 місце в своєму списку 100 найкращих фільмів 1990-х рр.


Тривалість: 02:09:38
Якість: Remux 1080p
Відео:
кодек: VC-1
розмір кадру: 1920 х 1080
бітрейт: 26.6 Mb/s

Аудіо # 1:
мова: українська
переклад: багатоголосий закадровий [ICTV]
кодек: 5.1
бітрейт: 384 kb/s

Аудіо # 2:
мова: українська
переклад: багатоголосий закадровий [ІНТЕР]
кодек: 5.1
бітрейт: 384 kb/s

Аудіо # 3:
мова: англійська
переклад: оригінал
кодек: -HD 5.1
бітрейт: 1 510 kb/s

Субтитри:
мова: англійська
тип: пререндерні
формат: *.pgs
Info
General
Unique ID : 136565936548124237658926866455644278584 (0x66BDA4853E4B51143516719B680F0F38)
Complete name : F:\Фантастика\Starship Troopers (1997) Remux 1080p 2хUkrEng Sub Eng [Hurtom].
Format :
Format version : Version 4 / Version 2
File size : 26.1 GiB
Duration : 2 h 9 min
Overall bit rate : 28.9 Mb/s
Movie name : Starship Troopers (1997) - Release for Hurtom
Encoded date : UTC 2019-01-26 22:00:22
Writing application : v25.0.0 ('Prog Noir') 64-bit
Writing library : libebml v1.3.6 + v1.4.9
Cover : Yes
Attachments : xlog.txt / cover.jpg

Video
ID : 1
Format : VC-1
Format profile : [email protected]
Codec ID : V_MS/VFW/FOURCC / WVC1
Codec ID/Hint : Microsoft
Duration : 2 h 9 min
Bit rate : 26.6 Mb/s
Width : 1 920 pixels
Height : 1 080 pixels
Display aspect ratio : 16:9
Frame rate mode : Constant
Frame rate : 23.976 (24000/1001) FPS
Color space : YUV
Chroma subsampling : 4:2:0
Bit depth : 8 bits
Scan type : Progressive
Compression mode : Lossy
Bits/(Pixel*Frame) : 0.534
Stream size : 24.1 GiB (92%)
Title : Starship Troopers (1997) Remux 1080p 2хUkr/Eng | Sub Eng [Hurtom]
Language : Ukrainian
Default : Yes
Forced : No

Audio #1
ID : 2
Format : AC-3
Format/Info : Audio Coding 3
Format settings, Endianness : Big
Codec ID : A_AC3
Duration : 2 h 9 min
Bit rate mode : Constant
Bit rate : 384 kb/s
Channel(s) : 6 channels
Channel positions : Front: L C R, Side: L R, LFE
Sampling rate : 48.0 kHz
Frame rate : 31.250 FPS (1536 SPF)
Bit depth : 16 bits
Compression mode : Lossy
Delay relative to video : 2 s 0 ms
Stream size : 356 MiB (1%)
Title : MVO [ICTV]
Language : Ukrainian
Service kind : Complete Main
Default : Yes
Forced : Yes

Audio #2
ID : 3
Format : AC-3
Format/Info : Audio Coding 3
Format settings, Endianness : Big
Codec ID : A_AC3
Duration : 2 h 9 min
Bit rate mode : Constant
Bit rate : 384 kb/s
Channel(s) : 6 channels
Channel positions : Front: L C R, Side: L R, LFE
Sampling rate : 48.0 kHz
Frame rate : 31.250 FPS (1536 SPF)
Bit depth : 16 bits
Compression mode : Lossy
Delay relative to video : 2 s 0 ms
Stream size : 356 MiB (1%)
Title : MVO [ІНТЕР]
Language : Ukrainian
Service kind : Complete Main
Default : No
Forced : No

Audio #3
ID : 4
Format :
Format/Info : Digital Theater Systems
Mode : 16
Format settings, Endianness : Big
Codec ID : A_DTS
Duration : 2 h 9 min
Bit rate mode : Constant
Bit rate : 1 510 kb/s
Channel(s) : 6 channels
Channel positions : Front: L C R, Side: L R, LFE
Sampling rate : 48.0 kHz
Frame rate : 93.750 FPS (512 SPF)
Bit depth : 16 bits
Compression mode : Lossy
Delay relative to video : 11 ms
Stream size : 1.37 GiB (5%)
Title : Original
Language : English
Default : No
Forced : No

Text
ID : 5
Format : PGS
Muxing mode : zlib
Codec ID : S_HDMV/PGS
Codec ID/Info : Picture based subtitle format used on BDs/HD-DVDs
Duration : 1 h 58 min
Bit rate : 29.4 kb/s
Count of elements : 2692
Stream size : 24.9 MiB (0%)
Title : Eng
Language : English
Default : No
Forced : No
Скріншоти
За українські доріжки подяка п. Romario_O

Джерело: &
Особиста оцінка: 10 - без зайвих вагань рекомендую всім!


Золотий реліз (завантажене не впливає на рейтинг)
 Трекер:    Зареєстрований   

Завантажити / скачати фільм українською



відео для новачків



 Зареєстрований:   2019-01-27 02:24
 Розмір:   26.13 GB 
 Оцінка фільму:   9.9/10 (Голосів: 19)
   
Інші релізи
Oleksa9 
VIP


З нами з: 17.05.12
Востаннє: 13.08.20
Повідомлень: 410

2020-01-19 10:07  
От ще б наступні частини такою якістю Rolleyes (1)
+380954897458 
Попереджень: 1
Попереджень: 1 


З нами з: 02.06.17
Востаннє: 11.08.20
Повідомлень: 925

2020-01-19 11:31  
Oleksa9
І ніяких претензій до перекладу і правильної вимови слів? Я вражений! А наступні частини зовсім не потрібні, я вважаю, бо то низькопробне сміття, що паразитує на першій стрічці, бездоганній за всіма критеріями.

MakRA 
VIP


З нами з: 11.11.18
Востаннє: 13.08.20
Повідомлень: 1092

2020-01-19 12:28  
+380954897458
Якщо чесно, я інших навіть не дивився. Щось не хочеться псувати враження від першої частини.

Oleksa9 
VIP


З нами з: 17.05.12
Востаннє: 13.08.20
Повідомлень: 410

2020-01-19 12:33  
+380954897458 написано:
І ніяких претензій до перекладу і правильної вимови слів?

Якщо є англомовна доріжка, то переглядаю з нею, тому переклад тут неоцінений.

Ваш часовий пояс: GMT + 2 Години

Нова тема   Відповісти