Переродження (Сезон 1) / The Passage (Season 1) (2019) 720p Ukr/Eng | Sub Eng

Нові коментарі

Нова тема   Відповісти
Автор Повідомлення
Anonymous 







2019-01-26 22:52  
Переродження (Сезон 1) / The Passage (Season 1) (2019) 720p Ukr/Eng | Sub Eng

Переродження (Сезон 1) / The Passage (Season 1) (2019) 720p Ukr/Eng | Sub Eng


Жанр: екшн, пригодницький, драма
Країна: США



Кінокомпанія: 20th Century Fox Television, 6th & Idaho Productions, Scott Free Productions
Режисер: Джейсон Енслер, Еллісон Лідді
Актори: Бріанна Гоуі, МакКінлі Белчер III, Брайана Браун, Керолайн Чікезі, Еммануель Шрікі, Генрі Йен Кусик, Марк-Пол Госселаар, Джеймі МакШейн, Вінсент П'яцца, Саня Сідні

Сюжет:
Оригінальна та цікава суміш пригодницької фантастики та хоррору про епідемію, що перетворює людей на вампірів.


Тривалість: 1 серія: 00:44 (цілком серій: 10)
Перелік серій
1. Pilot
2. You Owe Me a Unicorn
3. That Never Should Have Happened to You
4. Whose Blood Is That?
5. How You Gonna Outrun the End of the World
6. I Want to Know What You Taste Like
7. You Are Like the Sun
8. You Are Not That Girl Anymore
9. Stay in the Light
10. Last Lesson
Якість:
Відео:
кодек:
розмір кадру: 1280 х 720
бітрейт: 4414 кб/с

Аудіо # 1:
мова: українська
переклад: багатоголосий закадровий
кодек: 5.1
бітрейт: 384 кб/с

Аудіо # 2:
мова: англійська
переклад: оригінал
кодек: E- 5.1
бітрейт: 640 кб/с

Джерело озвучення:
DniproFilm

Субтитри:
мова: англійська (SDH)
тип: програмні (м'які)
формат: *.srt
Info
General
Unique ID : 272621664114779711554156348364615439890 (0xCD1905CBC8793EBD2367196825E5D612)
Complete name : The.Passage.S01E01.Pilot.720p.AMZN..DDP5.1..
Format :
Format version : Version 4
File size : 1.72 GiB
Duration : 45 min 10 s
Overall bit rate : 5 440 kb/s
Encoded date : UTC 2019-01-25 00:11:09
Writing application : v30.1.0 ('Forever And More') 32-bit
Writing library : libebml v1.3.6 + v1.4.9

Video
ID : 1
Format : AVC
Format/Info : Advanced Video Codec
Format profile : [email protected]
Format settings : CABAC / 4 Ref Frames
Format settings, CABAC : Yes
Format settings, ReFrames : 4 frames
Codec ID : V_MPEG4/ISO/AVC
Duration : 45 min 10 s
Bit rate mode : Constant
Bit rate : 4 414 kb/s
Nominal bit rate : 6 000 kb/s
Width : 1 280 pixels
Height : 720 pixels
Display aspect ratio : 16:9
Frame rate mode : Constant
Frame rate : 23.976 (24000/1001) FPS
Color space : YUV
Chroma subsampling : 4:2:0
Bit depth : 8 bits
Scan type : Progressive
Bits/(Pixel*Frame) : 0.200
Stream size : 1.39 GiB (81%)
Default : Yes
Forced : No
Color range : Limited
Color primaries : BT.709
Transfer characteristics : BT.709
Matrix coefficients : BT.709

Audio #1
ID : 2
Format : AC-3
Format/Info : Audio Coding 3
Commercial name : Dolby Digital
Codec ID : A_AC3
Duration : 45 min 10 s
Bit rate mode : Constant
Bit rate : 384 kb/s
Channel(s) : 6 channels
Channel layout : L R C LFE Ls Rs
Sampling rate : 48.0 kHz
Frame rate : 31.250 FPS (1536 SPF)
Bit depth : 16 bits
Compression mode : Lossy
Stream size : 124 MiB (7%)
Language : Ukrainian
Service kind : Complete Main
Default : Yes
Forced : Yes

Audio #2
ID : 3
Format : E-AC-3
Format/Info : Enhanced AC-3
Commercial name : Dolby Digital Plus
Codec ID : A_EAC3
Duration : 45 min 10 s
Bit rate mode : Constant
Bit rate : 640 kb/s
Channel(s) : 6 channels
Channel layout : L R C LFE Ls Rs
Sampling rate : 48.0 kHz
Frame rate : 31.250 FPS (1536 SPF)
Compression mode : Lossy
Stream size : 207 MiB (12%)
Language : English
Service kind : Complete Main
Default : No
Forced : No

Text
ID : 4
Format : UTF-8
Codec ID : S_TEXT/UTF8
Codec ID/Info : UTF-8 Plain Text
Duration : 45 min 4 s
Bit rate : 70 b/s
Count of elements : 817
Stream size : 23.2 KiB (0%)
Title : SDH
Language : English
Default : No
Forced : No
Скріншоти


Джерело:


Авторський реліз (завантажувати можна без реєстрації)
 Трекер:    Зареєстрований   

Завантажити / скачати серіал українською



відео для новачків



 Зареєстрований:   2019-03-17 18:38
 Розмір:   14.83 GB 
 Оцінка серіалу:   9.7/10 (Голосів: 15)
   
Anonymous 







2019-01-30 04:33  
Додано 3 серію
Anonymous 







2019-02-16 15:48  
+ 4-та серія
Anonymous 







2019-02-26 13:39  
+5 і 6 серії
don pedro 
Попереджень: 1
Попереджень: 1 


З нами з: 29.06.11
Востаннє: 23.03.19
Повідомлень: 13214

2019-02-26 14:21  
Anonymous написано:
+5 і 6 серії

Змініть в описі.

Anonymous 







2019-02-26 15:42  
don pedro написано:
Змініть в описі.


VOLYMIR 
Частий відвідувач


З нами з: 15.10.15
Востаннє: 17.03.19
Повідомлень: 32

2019-02-27 11:44  
Anonymous
Може додасте в описі, скільки серій всього, і коли чекати наступні?
З Зоряним Шляхом таж біда, я думав, чому так мало серій другого сезону, аж поки не додивися останню, з описом продовження, а тут його взагалі немає

Anonymous 







2019-03-03 23:15  
Додано 7 серію
casper101 
VIP


З нами з: 03.12.09
Востаннє: 22.03.19
Повідомлень: 376

2019-03-03 23:34  
всього серій 10?
Anonymous 







2019-03-04 00:49  
casper101 написано:
всього серій 10?

так на імдб вказано https://www.imdb.com/title/tt1074206/episodes?season=1

staf777 
Відео Гуртом - підтримка та поширення
Відео Гуртом - підтримка та поширення


З нами з: 16.11.16
Востаннє: 22.03.19
Повідомлень: 2196

2019-03-08 19:00  
Додайте будь ласка 8 серію - серіал бомба - дякую
Anonymous 







2019-03-08 19:19  
staf777 написано:
Додайте будь ласка 8 серію - серіал бомба - дякую

Додано 8 серію

staf777 
Відео Гуртом - підтримка та поширення
Відео Гуртом - підтримка та поширення


З нами з: 16.11.16
Востаннє: 22.03.19
Повідомлень: 2196

2019-03-08 19:51  
Anonymous
Дякую

Anonymous 







2019-03-17 18:39  
+9-10 серії.
Сезон повний.

Ваш часовий пояс: GMT + 2 Години

Нова тема   Відповісти