Містер Доля / Mr. Destiny (1990) Remux 1080p Ukr/Eng | Sub Eng

Нові коментарі

Нова тема   Відповісти
Останній раз роздавалося wired (2019-04-08)
Автор Повідомлення
BABELAN 
Свій


З нами з: 17.01.19
Востаннє: 30.09.20
Повідомлень: 50

2019-01-26 21:07  
Містер Доля / Mr. Destiny (1990) Remux 1080p Ukr/Eng | Sub Eng



Жанр: комедія, фентезі, романтичний
Країна: США



Кінокомпанія: Touchstone Pictures
Режисер: Джеймс Ор
Актори: Джеймс Белуші, Лінда Хемілтон, Майкл Кейн, Рене Русо, Джон Ловітц, Кортні Кокс

Сюжет:
Уявіть, що в один прекрасний день збуваються всі ваші мрії. Саме це і трапилося зі скромним службовцем Ларрі, коли він зустрів таємничого незнайомця. В одну мить життя Ларрі перетворилося на казку - величезний особняк, прекрасна дружина, розкішні машини! Але досить швидко він зрозумів, що не цінував того, що в нього було раніше, і чого тепер повернути не так просто.


Тривалість: 01:50:27
Якість: Remux 1080p
Відео:
кодек:
розмір кадру: 1920x1080
бітрейт: 19.4 Mб/с

Аудіо # 1:
мова: українська
переклад: багатоголосий закадровий
кодек: 2.0
бітрейт: 192 кб/с

Аудіо # 2:
мова: англійська
переклад: оригінал
кодек: -HD MA 2.0
бітрейт: 1560 кб/с

Джерело озвучення:


Субтитри:
мова: англійська
тип: програмні (м'які)
формат: *.srt
Info
General
Unique ID : 109848156992410193562047665937753093339 (0x52A3FC48FD83039D1D1CD6C321D0B4DB)
Complete name : S:\» HD українською » Фільми в HD\Релізи BABELAN\Mr. Destiny (1990) Remux 1080p [UKR][ENG][Hurtom].
Format :
Format version : Version 4
File size : 16.3 GiB
Duration : 1 h 50 min
Overall bit rate mode : Variable
Overall bit rate : 21.2 Mb/s
Movie name : Mr. Destiny (1990) Remux 1080p [UKR][ENG][Hurtom]
Encoded date : UTC 2019-01-27 08:28:34
Writing application : v30.1.0 ('Forever And More') 64-bit
Writing library : libebml v1.3.6 + v1.4.9
Cover : Yes
Attachments : cover.jpg

Video
ID : 1
Format : AVC
Format/Info : Advanced Video Codec
Format profile : [email protected]
Format settings : CABAC / 4 Ref Frames
Format settings, CABAC : Yes
Format settings, ReFrames : 4 frames
Codec ID : V_MPEG4/ISO/AVC
Duration : 1 h 50 min
Bit rate mode : Variable
Bit rate : 19.4 Mb/s
Maximum bit rate : 38.0 Mb/s
Width : 1 920 pixels
Height : 1 080 pixels
Display aspect ratio : 16:9
Frame rate mode : Constant
Frame rate : 23.976 (24000/1001) FPS
Color space : YUV
Chroma subsampling : 4:2:0
Bit depth : 8 bits
Scan type : Progressive
Bits/(Pixel*Frame) : 0.390
Stream size : 15.0 GiB (92%)
Language : English
Default : Yes
Forced : No

Audio #1
ID : 2
Format : AC-3
Format/Info : Audio Coding 3
Commercial name : Dolby Digital
Codec ID : A_AC3
Duration : 1 h 50 min
Bit rate mode : Constant
Bit rate : 192 kb/s
Channel(s) : 2 channels
Channel layout : L R
Sampling rate : 48.0 kHz
Frame rate : 31.250 FPS (1536 SPF)
Bit depth : 16 bits
Compression mode : Lossy
Stream size : 152 MiB (1%)
Title : UKR-MVO | TET
Language : Ukrainian
Service kind : Complete Main
Default : Yes
Forced : Yes

Audio #2
ID : 3
Format : XLL
Format/Info : Digital Theater Systems
Commercial name : -HD Master Audio
Codec ID : A_DTS
Duration : 1 h 50 min
Bit rate mode : Variable
Bit rate : 1 560 kb/s
Channel(s) : 2 channels
Channel layout : L R
Sampling rate : 48.0 kHz
Frame rate : 93.750 FPS (512 SPF)
Bit depth : 16 bits
Compression mode : Lossless
Stream size : 1.20 GiB (7%)
Title : Original
Language : English
Default : No
Forced : No

Text
ID : 4
Format : UTF-8
Codec ID : S_TEXT/UTF8
Codec ID/Info : UTF-8 Plain Text
Duration : 1 h 49 min
Bit rate : 58 b/s
Count of elements : 1612
Stream size : 46.9 KiB (0%)
Language : English
Default : No
Forced : No

Menu
00:00:00.000 : en:Chapter 00
00:09:07.463 : en:Chapter 01
00:21:02.469 : en:Chapter 02
00:36:32.315 : en:Chapter 03
00:55:37.292 : en:Chapter 04
01:10:58.170 : en:Chapter 05
01:25:37.757 : en:Chapter 06
01:38:42.249 : en:Chapter 07



Постер від Ham_R
Джерело: & RUTOR
Особиста оцінка: 10 - без зайвих вагань рекомендую всім!


Золотий реліз (завантажене не впливає на рейтинг)
 Трекер:    Зареєстрований   

Завантажити / скачати фільм українською



відео для новачків



 Зареєстрований:   2019-01-28 00:40
 Розмір:   16.33 GB 
 Оцінка фільму:   8.2/10 (Голосів: 5)
   
Інші релізи
   Містер Доля / Mr. Destiny (1990) 1080p Ukr/Eng drop_plz  3 / 0   8.89 GB   2018-07-31 11:35 
   Містер Доля / Mr. Destiny (1990) NemoInFire  6 / 0   1.29 GB   2013-11-29 19:09 
bot 
робот


З нами з: 30.09.07
Востаннє: 26.05.05
Повідомлень: 25666

2019-01-26 21:08  
Тему перенесено з Фільми в HD до форуму Анонси релізів


BABELAN

Ham_R 
Відео Гуртом - дизайнер
Відео Гуртом - дизайнер


З нами з: 23.04.13
Востаннє: 29.08.20
Повідомлень: 117

2019-01-27 14:48  

BABELAN 
Свій


З нами з: 17.01.19
Востаннє: 30.09.20
Повідомлень: 50

2019-01-28 00:08  
Ham_R
Дякую

bot 
робот


З нами з: 30.09.07
Востаннє: 26.05.05
Повідомлень: 25666

2019-01-28 00:40  
Тему перенесено з Анонси релізів до форуму Фільми в HD


BABELAN

kryk-v.ya. 
Попереджень: 1
Попереджень: 1 


З нами з: 14.02.14
Востаннє: 30.09.20
Повідомлень: 2259

2019-01-28 21:30  
BABELAN написано:
Водка - зло

виправте будь-ласка...на вотка

Ваш часовий пояс: GMT + 2 Години

Нова тема   Відповісти