Народження зірки / A Star Is Born (2018) Remux 1080p Ukr/Eng | Sub Eng

Нові коментарі

Нова тема   Відповісти
Автор Повідомлення
Anonymous 







2019-01-26 20:03  
Народження зірки / A Star Is Born (2018) Remux 1080p Ukr/Eng | Sub Eng

Народження зірки / A Star Is Born (2018) Remux 1080p Ukr/Eng | Sub Eng

Альтернативні постери:





Жанр: драма, музичний, романтичний
Країна: США





Кінокомпанія: Warner Bros. Pictures, Live Nation Productions, Metro-Goldwyn-Mayer (MGM), Peters Entertainment, Gerber Pictures, Malpaso Productions, Thunder Road Pictures
Режисер: Бредлі Купер
Актори: Леді Гага, Бредлі Купер, Сем Елліотт, Ендрю Дайс Клей, Рафі Гаврон, Ентоні Рамос, Дейв Шапелл, Алек Болдуін

Сюжет:
Джексон Мейн колись був вельми успішним музикантом, який виконував пісні у стилі кантрі. Зараз його музичний шлях усе ближче і ближче до заходу, він уже далеко не такий цікавий публіці, як раніше. Та і пристрасть до алкоголю не сильно допомагає Джексону виступати. Чоловік в одному закладі випадково зустрів дівчину з божественним голосом – її звуть Еллі. Вона давно мріяла стати відомою співачкою, але вже зневірилася в цій мрії. Людям подобається її голос, але не зовнішність... Але Джек вирішив будь-якою ціною допомогти Еллі запустити кар'єру. І вони закохалися... Дівчина стає все більш популярною, а чоловік переживає кінець творчої кар'єри. Тільки це може перешкодити їхньому коханню.


Тривалість: 02:15:45
Якість: Remux 1080p

Відео:
кодек:
розмір кадру: 1920x1080
бітрейт: 24,7 Mбт/с

Аудіо # 1:
мова: українська
переклад: професійний дубльований
кодек: 2.0
бітрейт: 192 кб/с

Аудіо # 2:
мова: англійська
переклад: оригінал
кодек: TrueHD 7.1
бітрейт: 3597 кб/с

Аудіо # 3:
мова: англійська
переклад: оригінал
кодек: 5.1
бітрейт: 448 кб/с

Джерело озвучення:


Субтитри (Forced):
мова: українська
тип: програмні (м'які)
формат: *.srt

Субтитри (Full):
мова: англійська
тип: програмні (м'які)
формат: *.srt
Info
General
Complete name : A Star Is Born (2018) Remux [UKR.ENG] [ViDeO_Hurtom].
Format :
Format version : Version 4 / Version 2
File size : 27.6 GiB
Duration : 2 h 15 min
Overall bit rate mode : Variable
Overall bit rate : 29.1 Mb/s
Movie name : A Star Is Born (2018) Remux [UKR.ENG] [ViDeO_Hurtom]
Encoded date : UTC 2019-01-26 23:27:27
Writing application : v30.1.0 ('Forever And More') 64-bit
Writing library : libebml v1.3.6 + v1.4.9

Video
ID : 1
Format : AVC
Format/Info : Advanced Video Codec
Format profile : [email protected]
Format settings : CABAC / 2 Ref Frames
Format settings, CABAC : Yes
Format settings, ReFrames : 2 frames
Codec ID : V_MPEG4/ISO/AVC
Duration : 2 h 15 min
Bit rate mode : Variable
Bit rate : 24.7 Mb/s
Width : 1 920 pixels
Height : 1 080 pixels
Display aspect ratio : 16:9
Frame rate mode : Constant
Frame rate : 23.976 (24000/1001) FPS
Color space : YUV
Chroma subsampling : 4:2:0
Bit depth : 8 bits
Scan type : Progressive
Bits/(Pixel*Frame) : 0.498
Stream size : 23.5 GiB (85%)
Language : English
Default : Yes
Forced : No

Audio #1
ID : 2
Format : AC-3
Format/Info : Audio Coding 3
Codec ID : A_AC3
Duration : 2 h 15 min
Bit rate mode : Constant
Bit rate : 192 kb/s
Channel(s) : 2 channels
Channel positions : Front: L R
Sampling rate : 48.0 kHz
Frame rate : 31.250 FPS (1536 SPF)
Bit depth : 16 bits
Compression mode : Lossy
Stream size : 186 MiB (1%)
Title : , 2 ch, 192 Кбт/с
Language : Ukrainian
Service kind : Complete Main
Default : Yes
Forced : Yes

Audio #2
ID : 3
Format : TrueHD
Format profile : TrueHD+Atmos / TrueHD
Codec ID : A_TRUEHD
Duration : 2 h 15 min
Bit rate mode : Variable
Bit rate : 3 597 kb/s
Maximum bit rate : 5 472 kb/s
Channel(s) : Object Based / 8 channels
Channel positions : Object Based / Front: L C R, Side: L R, Back: L R, LFE
Sampling rate : / 48.0 kHz
Frame rate : 1 200.000 FPS (40 SPF)
Compression mode : Lossless
Stream size : 3.41 GiB (12%)
Title : TrueHD, 8 ch, 3597 Кбт/с
Language : English
Default : No
Forced : No

Audio #3
ID : 4
Format : AC-3
Format/Info : Audio Coding 3
Codec ID : A_AC3
Duration : 2 h 15 min
Bit rate mode : Constant
Bit rate : 448 kb/s
Channel(s) : 6 channels
Channel positions : Front: L C R, Side: L R, LFE
Sampling rate : 48.0 kHz
Frame rate : 31.250 FPS (1536 SPF)
Bit depth : 16 bits
Compression mode : Lossy
Stream size : 435 MiB (2%)
Title : , 6 ch, 448 Кбт/с
Language : English
Service kind : Complete Main
Default : No
Forced : No

Text #1
ID : 5
Format : UTF-8
Codec ID : S_TEXT/UTF8
Codec ID/Info : UTF-8 Plain Text
Duration : 1 h 26 min
Bit rate : 0 b/s
Count of elements : 8
Stream size : 406 Bytes (0%)
Title : Forced
Language : Ukrainian
Default : Yes
Forced : Yes

Text #2
ID : 6
Format : UTF-8
Codec ID : S_TEXT/UTF8
Codec ID/Info : UTF-8 Plain Text
Duration : 2 h 14 min
Bit rate : 70 b/s
Count of elements : 2151
Stream size : 69.3 KiB (0%)
Title : Full
Language : English
Default : No
Forced : No
Скріншоти
Джерело: &
Особиста оцінка: 10 - без зайвих вагань рекомендую всім!


Золотий реліз (завантажене не впливає на рейтинг)
 Трекер:    Зареєстрований   

Завантажити / скачати фільм українською



відео для новачків



 Зареєстрований:   2019-01-27 12:00
 Розмір:   27.55 GB 
 Оцінка фільму:   8.7/10 (Голосів: 25)
   
Інші релізи
Anonymous 







2019-01-27 12:00  
Реліз оновлено.

Додав 2.0 192 кб/с

[email protected] 
Новенький


З нами з: 24.09.12
Востаннє: 25.11.19
Повідомлень: 11

2019-02-01 20:05  
класний фільм !!!
ALFROMEDA 
Відео Гуртом - підтримка та поширення
Відео Гуртом - підтримка та поширення


З нами з: 09.07.12
Востаннє: 16.12.19
Повідомлень: 353

2019-02-03 13:39  
гугл плей каже, що має доріжку 5.1
https://play.google.com/store/movies/details?id=G_58yEQvUHQ&hl=uk

я не гурман, але може хтось бажає знати

nmm86r 
Новенький


З нами з: 25.02.15
Востаннє: 15.12.19
Повідомлень: 1

2019-02-03 13:56  
Актори грають не погано, сподобалась Леді Гага. Але фільм досить затягнутий, сюжет передбачуваний. 5/10 моя суб'єктивна оцінка
Ваш часовий пояс: GMT + 2 Години

Нова тема   Відповісти