Лускунчик і чотири королівства / The Nutcracker and the Four Realms (2018) 1080p Ukr/Eng | Sub Eng

Нові коментарі

Нова тема   Відповісти
Автор Повідомлення
antik_2008 
Релізер і модератор відео


З нами з: 20.10.08
Востаннє: 19.04.19
Повідомлень: 1947

2019-01-26 18:55  
Лускунчик і чотири королівства / The Nutcracker and the Four Realms (2018) 1080p Ukr/Eng | Sub Eng

Лускунчик і чотири королівства / The Nutcracker and the Four Realms (2018) 1080p Ukr/Eng | Sub Eng
Альтернативні постери:













Жанр: пригоди, сімейний, фентезі
Країна: США





Кінокомпанія: Walt Disney Pictures, The Mark Gordon Company
Режисер: Лассе Халльстрем, Джо Джонстон
Актори: МакКензі Фой, Джейден Фовора-Найт, Кіра Найтлі, Хелен Міррен, Морган Фрімен, Місті Коупленд, Еухеніо Дербес, Річард Е. Грант, Метью Макфейден

Сюжет:
У найважчі часи тільки Різдво приносить щастя в кожен будинок. Тільки ось юна Клара не хоче нічому радіти. Але її хрещений батько Дроссельмейер зробив їй незвичайний подарунок, який дозволив дівчинці потрапити в захопливий паралельний світ. Клара потрапила у світ, створений її загиблою матір'ю. У цьому королівстві є кілька областей: Країна Снігів, Країна Квітів, Країна Солодощів. Пробувши трохи там, дівчина зустрічає солдата Філіпа та розуміє, що вона принцеса, а мати її – королева. А ще Клара дізналася, що всі ці землі в небезпеці, адже їх хоче захопити Імбирна Мати разом зі своєю мишачою армією. Кларі треба дістатися до Четвертої Країни та дати бій ворогові. Цей світ потребує гармонії.


Тривалість: 01:39:16
Якість: 1080p

Відео:
кодек:
розмір кадру: 1920x1040
бітрейт: ~13000 кб/с

Аудіо # 1:
мова: українська
переклад: професійний дубльований
кодек: 5.1
бітрейт: 1536 кб/с

Аудіо # 2:
мова: українська
переклад: професійний дубльований
кодек: 5.1
бітрейт: 640 кб/с

Аудіо # 3:
мова: англійська
переклад: оригінал
кодек: 5.1
бітрейт: 640 кб/с

Аудіо # 4:
мова: англійська
переклад: оригінал
кодек: 5.1
бітрейт: 1536 кб/с

Субтитри (SDH, Full):
мова: англійська
тип: програмні (м'які)
формат: *.srt
Info
Код:
General
Complete name                            : The Nutcracker and the Four Realms (2018) [UKR_ENG] 1080p [ViDeO_Hurtom].
Format                                   :
Format version                           : Version 4
File size                                : 12.0 GiB
Duration                                 : 1 h 39 min
Overall bit rate                         : 17.3 Mb/s
Movie name                               : The Nutcracker and the Four Realms (2018) [UKR_ENG] 1080p [ViDeO_Hurtom]
Encoded date                             : UTC 2019-03-12 20:53:32
Writing application                      : v30.1.0 ('Forever And More') 64-bit
Writing library                          : libebml v1.3.6 + v1.4.9

Video
ID                                       : 1
Format                                   : AVC
Format/Info                              : Advanced Video Codec
Format profile                           : [email protected]
Format settings                          : CABAC / 4 Ref Frames
Format settings, CABAC                   : Yes
Format settings, RefFrames               : 4 frames
Codec ID                                 : V_MPEG4/ISO/AVC
Duration                                 : 1 h 39 min
Bit rate                                 : 13.0 Mb/s
Width                                    : 1 920 pixels
Height                                   : 1 040 pixels
Display aspect ratio                     : 1.85:1
Frame rate mode                          : Constant
Frame rate                               : 23.976 (24000/1001) FPS
Color space                              : YUV
Chroma subsampling                       : 4:2:0
Bit depth                                : 8 bits
Scan type                                : Progressive
Bits/(Pixel*Frame)                       : 0.272
Stream size                              : 9.01 GiB (75%)
Writing library                          : core 142 r2431+42 c69a006 tMod [[email protected] X86_64]
Encoding settings                        : cabac=1 / ref=4 / deblock=1:-3:-3 / analyse=0x3:0x133 / me=umh / subme=11 / psy=1 / fade_compensate=0.00 / psy_rd=1.05:1.05 / mixed_ref=1 / me_range=48 / chroma_me=1 / trellis=2 / 8x8dct=1 / cqm=0 / deadzone=21,11 / fast_pskip=0 / chroma_qp_offset=-4 / threads=16 / lookahead_threads=2 / sliced_threads=0 / nr=0 / decimate=0 / interlaced=0 / bluray_compat=0 / constrained_intra=0 / fgo=0 / bframes=8 / b_pyramid=2 / b_adapt=2 / b_bias=0 / direct=3 / weightb=1 / open_gop=0 / weightp=2 / keyint=240 / keyint_min=23 / scenecut=40 / intra_refresh=0 / rc_lookahead=240 / rc=2pass / mbtree=0 / bitrate=13000 / ratetol=1.0 / qcomp=0.60 / qpmin=0:0:0 / qpmax=69:69:69 / qpstep=4 / cplxblur=20.0 / qblur=0.5 / vbv_maxrate=40000 / vbv_bufsize=30000 / nal_hrd=none / filler=0 / ip_ratio=1.30 / pb_ratio=1.20 / aq=2:0.68 / aq-sensitivity=10.00 / aq-factor=1.00:1.00:1.00 / aq2=0 / aq3=0
Language                                 : English
Default                                  : Yes
Forced                                   : No
Color range                              : Limited
Color primaries                          : BT.709
Transfer characteristics                 : BT.709
Matrix coefficients                      : BT.709

Audio #1
ID                                       : 2
Format                                   :
Format/Info                              : Digital Theater Systems
Codec ID                                 : A_DTS
Duration                                 : 1 h 39 min
Bit rate mode                            : Constant
Bit rate                                 : 1 509 kb/s
Channel(s)                               : 6 channels
Channel layout                           : C L R Ls Rs LFE
Sampling rate                            : 48.0 kHz
Frame rate                               : 93.750 FPS (512 SPF)
Bit depth                                : 24 bits
Compression mode                         : Lossy
Stream size                              : 1.05 GiB (9%)
Title                                    : , 6 ch, 1536 Кбт/с
Language                                 : Ukrainian
Default                                  : Yes
Forced                                   : No

Audio #2
ID                                       : 3
Format                                   : AC-3
Format/Info                              : Audio Coding 3
Commercial name                          : Dolby Digital
Codec ID                                 : A_AC3
Duration                                 : 1 h 39 min
Bit rate mode                            : Constant
Bit rate                                 : 640 kb/s
Channel(s)                               : 6 channels
Channel layout                           : L R C LFE Ls Rs
Sampling rate                            : 48.0 kHz
Frame rate                               : 31.250 FPS (1536 SPF)
Bit depth                                : 16 bits
Compression mode                         : Lossy
Stream size                              : 454 MiB (4%)
Title                                    : , 6 ch, 640 Кбт/с
Language                                 : Ukrainian
Service kind                             : Complete Main
Default                                  : No
Forced                                   : No

Audio #3
ID                                       : 4
Format                                   : AC-3
Format/Info                              : Audio Coding 3
Commercial name                          : Dolby Digital
Codec ID                                 : A_AC3
Duration                                 : 1 h 39 min
Bit rate mode                            : Constant
Bit rate                                 : 640 kb/s
Channel(s)                               : 6 channels
Channel layout                           : L R C LFE Ls Rs
Sampling rate                            : 48.0 kHz
Frame rate                               : 31.250 FPS (1536 SPF)
Bit depth                                : 16 bits
Compression mode                         : Lossy
Stream size                              : 454 MiB (4%)
Title                                    : , 6 ch, 640 Кбт/с
Language                                 : English
Service kind                             : Complete Main
Default                                  : No
Forced                                   : No

Audio #4
ID                                       : 5
Format                                   :
Format/Info                              : Digital Theater Systems
Codec ID                                 : A_DTS
Duration                                 : 1 h 39 min
Bit rate mode                            : Constant
Bit rate                                 : 1 509 kb/s
Channel(s)                               : 6 channels
Channel layout                           : C L R Ls Rs LFE
Sampling rate                            : 48.0 kHz
Frame rate                               : 93.750 FPS (512 SPF)
Bit depth                                : 24 bits
Compression mode                         : Lossy
Stream size                              : 1.05 GiB (9%)
Title                                    : , 6 ch, 1536 Кбт/с
Language                                 : English
Default                                  : No
Forced                                   : No

Text #1
ID                                       : 6
Format                                   : UTF-8
Codec ID                                 : S_TEXT/UTF8
Codec ID/Info                            : UTF-8 Plain Text
Duration                                 : 1 h 27 min
Bit rate                                 : 43 b/s
Count of elements                        : 1096
Stream size                              : 27.7 KiB (0%)
Language                                 : English
Default                                  : Yes
Forced                                   : No

Text #2
ID                                       : 7
Format                                   : UTF-8
Codec ID                                 : S_TEXT/UTF8
Codec ID/Info                            : UTF-8 Plain Text
Duration                                 : 1 h 36 min
Bit rate                                 : 45 b/s
Count of elements                        : 1338
Stream size                              : 32.4 KiB (0%)
Title                                    : SDH
Language                                 : English
Default                                  : No
Forced                                   : No
Скріншоти


















Подяка пану Hanway за синхронізацію звуку.

Джерело:
Особиста оцінка: 7 - моїй подрузі не сподобалося


 Трекер:    Зареєстрований   

Завантажити / скачати фільм українською



відео для новачків



 Зареєстрований:   2019-03-13 00:11
 Розмір:   12 GB 
 Оцінка фільму:   8.9/10 (Голосів: 22)
   
bot 
робот


З нами з: 30.09.07
Востаннє: 26.05.05
Повідомлень: 21205

2019-01-27 22:15  
Тему перенесено з Анонси релізів до форуму Фільми в HD


antik_2008

DIDJEYS 
Новенький


З нами з: 04.03.10
Востаннє: 19.04.19
Повідомлень: 6

2019-01-28 05:53  
Переклад жахливий, багато слів не українські...
antik_2008 
Релізер і модератор відео


З нами з: 20.10.08
Востаннє: 19.04.19
Повідомлень: 1947

2019-03-13 00:13  
Роздачу оновлено

Замінив аудіо на якісніше

Ваш часовий пояс: GMT + 2 Години

Нова тема   Відповісти