Два стволи / 2 Guns (2013) Remux 1080p Ukr/Eng | Sub Eng

Нові коментарі

Нова тема   Відповісти
Автор Повідомлення
MakRA 
VIP


З нами з: 11.11.18
Востаннє: 20.09.20
Повідомлень: 1119

2019-01-26 15:32  
Два стволи / 2 Guns (2013) Remux 1080p Ukr/Eng | Sub Eng

Два стволи / 2 Guns (2013) Remux 1080p Ukr/Eng | Sub Eng
Український постер:



Жанр: бойовик, комедія, кримінальний
Країна: США



Кінокомпанія: Emmett/Furla Films, Marc Platt Productions, Boom! Studios
Режисер: Бальтазар Кормакур [Baltasar Kormákur]
Актори: Дензел Вашинґтон [Denzel Washington], Марк Волберґ [Mark Wahlberg], Паула Паттон [Paula Patton], Білл Пекстон [Bill Paxton], Фред Ворд [Fred Ward], Джеймс Мерсден [James Marsden], Едвард Джеймс Олмос [Edward James Olmos]

Сюжет:
Після викрадення великої суми грошей, Боббі і Стіґ влаштовують перестрілку і з'ясовують, що обидва є агентами під прикриттям. Їх підставили, щоб вони викрали гроші ЦРУ і тепер вони мають їх повернути.

На основі однойменного коміксу Стівена Ґранта.


Тривалість: 01:49:20
Якість: Remux 1080p
Відео:
кодек:
розмір кадру: 1920 х 1080
бітрейт: 27,8 Mb/s

Аудіо # 1:
мова: українська
переклад: професійний дубльований [Blu-ray]
кодек: 5.1
бітрейт: 640 kb/s

Аудіо # 2:
мова: англійська
переклад: оригінал
кодек: -HD MA 5.1
бітрейт: 2677 kb/s

Аудіо # 3:
мова: англійська
переклад: оригінал | коментарі режисера та продюсера
кодек: 2.0
бітрейт: 192 kb/s

Субтитри # 1:
мова: українська (форсовані)
тип: пререндерні
формат: *.pgs

Субтитри # 2-4:
мова: англійська
тип: пререндерні
формат: *.pgs
Info
General
Unique ID : 23227131133598841476010177949661009430 (0x117961FB115BCA2EFAFDD3C589A61616)
Complete name : F:\Екшн, бойовики\2 Guns (2013) Remux 1080p UkrEng Sub UkrEng [Hurtom].
Format :
Format version : Version 4 / Version 2
File size : 24.0 GiB
Duration : 1 h 49 min
Overall bit rate mode : Variable
Overall bit rate : 31.4 Mb/s
Encoded date : UTC 2019-01-26 10:40:13
Writing application : v25.0.0 ('Prog Noir') 64-bit
Writing library : libebml v1.3.6 + v1.4.9

Video
ID : 1
Format : AVC
Format/Info : Advanced Video Codec
Format profile : [email protected]
Format settings, CABAC : Yes
Format settings, RefFrames : 2 frames
Format settings, GOP : M=1, N=10
Codec ID : V_MPEG4/ISO/AVC
Duration : 1 h 49 min
Bit rate mode : Variable
Bit rate : 27.8 Mb/s
Width : 1 920 pixels
Height : 1 080 pixels
Display aspect ratio : 16:9
Frame rate mode : Constant
Frame rate : 23.976 (24000/1001) FPS
Color space : YUV
Chroma subsampling : 4:2:0
Bit depth : 8 bits
Scan type : Progressive
Bits/(Pixel*Frame) : 0.560
Stream size : 21.3 GiB (89%)
Title : 2 Guns (2013) Remux 1080p Ukr/Eng | Sub Ukr/Eng [Hurtom]
Language : Ukrainian
Default : Yes
Forced : Yes

Audio #1
ID : 2
Format : AC-3
Format/Info : Audio Coding 3
Format settings, Endianness : Big
Codec ID : A_AC3
Duration : 1 h 49 min
Bit rate mode : Constant
Bit rate : 640 kb/s
Channel(s) : 6 channels
Channel positions : Front: L C R, Side: L R, LFE
Sampling rate : 48.0 kHz
Frame rate : 31.250 FPS (1536 SPF)
Bit depth : 16 bits
Compression mode : Lossy
Stream size : 500 MiB (2%)
Title : DUB [Blu-ray]
Language : Ukrainian
Service kind : Complete Main
Default : Yes
Forced : Yes

Audio #2
ID : 3
Format :
Format/Info : Digital Theater Systems
Format profile : MA / Core
Mode : 16
Format settings, Endianness : Big
Codec ID : A_DTS
Duration : 1 h 49 min
Bit rate mode : Variable / Constant
Bit rate : 2 677 kb/s / 1 509 kb/s
Channel(s) : 6 channels
Channel positions : Front: L C R, Side: L R, LFE
Sampling rate : 48.0 kHz
Frame rate : 93.750 FPS (512 SPF)
Bit depth : 24 bits
Compression mode : Lossless / Lossy
Stream size : 2.04 GiB (9%)
Title : Original
Language : English
Default : No
Forced : No

Audio #3
ID : 4
Format : AC-3
Format/Info : Audio Coding 3
Format settings, Endianness : Big
Codec ID : A_AC3
Duration : 1 h 49 min
Bit rate mode : Constant
Bit rate : 192 kb/s
Channel(s) : 2 channels
Channel positions : Front: L R
Sampling rate : 48.0 kHz
Frame rate : 31.250 FPS (1536 SPF)
Bit depth : 16 bits
Compression mode : Lossy
Stream size : 150 MiB (1%)
Title : Original
Language : English
Service kind : Complete Main
Default : No
Forced : No

Text #1
ID : 5
Format : PGS
Muxing mode : zlib
Codec ID : S_HDMV/PGS
Codec ID/Info : Picture based subtitle format used on BDs/HD-DVDs
Duration : 1 s 1 ms
Bit rate : 11.5 kb/s
Count of elements : 2
Stream size : 1.40 KiB (0%)
Title : Ukr
Language : Ukrainian
Default : Yes
Forced : No

Text #2
ID : 6
Format : PGS
Muxing mode : zlib
Codec ID : S_HDMV/PGS
Codec ID/Info : Picture based subtitle format used on BDs/HD-DVDs
Duration : 1 h 39 min
Bit rate : 39.0 kb/s
Count of elements : 2786
Stream size : 27.8 MiB (0%)
Title : Eng
Language : English
Default : No
Forced : No

Text #3
ID : 7
Format : PGS
Muxing mode : zlib
Codec ID : S_HDMV/PGS
Codec ID/Info : Picture based subtitle format used on BDs/HD-DVDs
Duration : 1 h 39 min
Bit rate : 39.1 kb/s
Count of elements : 2786
Stream size : 27.8 MiB (0%)
Title : Eng
Language : English
Default : No
Forced : No

Text #4
ID : 8
Format : PGS
Muxing mode : zlib
Codec ID : S_HDMV/PGS
Codec ID/Info : Picture based subtitle format used on BDs/HD-DVDs
Duration : 1 h 40 min
Bit rate : 71.3 kb/s
Count of elements : 3944
Stream size : 51.5 MiB (0%)
Title : Eng
Language : English
Default : No
Forced : No
Скріншоти
Джерело: &
Особиста оцінка: 10 - без зайвих вагань рекомендую всім!



Золотий реліз (завантажене не впливає на рейтинг)
 Трекер:    Зареєстрований   

Завантажити / скачати фільм українською



відео для новачків



 Зареєстрований:   2019-01-26 15:32
 Розмір:   23.99 GB 
 Оцінка фільму:   9.7/10 (Голосів: 14)
   
Інші релізи
   Два стволи / 2 Guns (2013) 1080p H.265 Ukr/Eng | Sub Eng -Star-Lord-  2 / 0   7.91 GB   2020-01-02 23:35 
   Два стволи / 2 Guns (2013) AVC patriot2305  9 / 0   2.25 GB   2013-12-30 20:33 
   Два стволи / 2 Guns (2013) Ukr/Eng Gelios  1 / 0   2.19 GB   2013-12-21 11:35 
   Два стволи / 2 Guns (2013) ilu  4 / 0   1.45 GB   2013-12-21 00:01 
   Два стволи / 2 Guns (2013) 720p Ukr/Eng Sando7  7 / 1   3.9 GB   2013-12-19 22:33 
   Два стволи / 2 Guns (2013) 1080p Ukr/Eng | Sub Eng 11FrYkT  5 / 0   9.97 GB   2013-12-19 20:22 
igor911 
Модератор відео


З нами з: 18.01.08
Востаннє: 20.09.20
Повідомлень: 14994

2019-01-26 21:58  
Цитата:
Sub Ukr/Eng

Info написано:
Text #1
Duration : 1 s 1 ms
Count of elements : 2
Language : Ukrainian
якщо присутні лише форсовані субтитри, то вони в назві теми та релізу не вказуються, лише повні. Виправив.

Info написано:
Audio #3
Bit rate : 192 kb/s
Channel(s) : 2 channels
Title : Original
Language : English
Також треба вказати в описі (і бажано прописувати в тезі назви при муксуванні в mkvtoolnix, на майбутнє), що це за друга англійська доріжка - описова (description) чи коментарі авторів.
Ваш часовий пояс: GMT + 2 Години

Нова тема   Відповісти