Чарівники (Сезон 4) / The Magicians (Season 4) (2019) 720p Ukr/Eng | Sub Eng

Нові коментарі

Нова тема   Відповісти
Автор Повідомлення
Anonymous 







2019-01-26 14:29  
Чарівники (Сезон 4) / The Magicians (Season 4) (2019) 720p Ukr/Eng | Sub Eng



Жанр: фентезі, драма
Країна: США



Кінокомпанія: Syfy
Режисер: Нік Копус, Стів Еделсон, Джон Бедем
Актори: Джейсон Ральф, Джейд Тейлор, Стелла Маїв, Арджун Ґупта, Хейл Ейплмен, Саммер Бішил, Олівія Тейлор Дадлі, Рік Ворсі, МакКензі Естін, Брітані Каррен

Сюжет:
Квентін Колдвотер – старшокласник з Брукліна, що відрізняється від всіх інших учнів неабиякими інтелектуальними здібностями, внаслідок чого його соціальні навички злегка постраждали. Проводячи величезну кількість часу за читанням своєї улюбленої серії книг «Філлорія й не тільки», хлопець ніби шукав можливість утекти в інший чарівний світ від нудьги і сірості повсякденних буднів і з завмиранням серця зануритися в захопливий світ фантазії. Раптово хлопець виявляє, що чарівний світ, який вабив його зі сторінок улюблених творів, дійсно існує. Квентін опиняється в Нью-Йоркському університеті Брейкбілс – таємничому місці, де талановитим студентам допомагають розвивати їхні неабиякі магічні здібності. Тієї миті обдарований юнак зрозумів, що хитрі карткові фокуси, які він старанно тренував з Джулією, своєю найкращою подругою, є не більш ніж дитячими іграми, в порівнянні з відкритими неймовірними можливостями. Але з усвідомленням того, що світ чаклунства і магії існує, з часом прийшло й розуміння того, що він може представляти величезну небезпеку для всього людства.


Тривалість: 1 серія: 43хв (цілком серій: 13 з 13)
Перелік серій
1.A Flock of Lost Birds
2.Lost, Found, Fucked
3.The Bad News Bear
4.Fuck Kill
5.Escape from the Happy Place
6.A Timeline and Place
7.The Side Effect
8.Home Improvement
9.The Serpent
10.The Serpent
11.The 4-1-1
12.The Secret Sea
13.The Seam
Якість:
Відео:
кодек:
розмір кадру: 1280 х 720
бітрейт: 3286 кб/с

Аудіо # 1:
мова: українська
переклад: багатоголосий закадровий | AniUA
кодек: 2.0
бітрейт: 380 кб/с

Аудіо # 2:
мова: англійська
переклад: оригінал
кодек: Е- 5.1
бітрейт: 640 кб/с

Субтитри:
мова: англійська
тип: програмні (м'які)
формат: *.srt

Субтитри:
мова: українська - на не озвучені фрази у деяких серіях.
тип: програмні (м'які)
формат: *.srt
Info
Complete name : H:\Серіали\The Magicians (Season 4) 720p [Ukr_Eng] [Hurtom]\The Magicians S04E01 -A Flock of Lost Birds 720p [Ukr_Eng] [Hurtom].
Format :
Format version : Version 4
File size : 1.36 GiB
Duration : 45 min 14 s
Overall bit rate mode : Variable
Overall bit rate : 4 317 kb/s
Encoded date : UTC 2019-01-26 11:12:01
Writing application : v27.0.0 ('Metropolis') 64-bit
Writing library : libebml v1.3.6 + v1.4.9
Cover : Yes
Attachments : cover.png

Video
ID : 1
Format : AVC
Format/Info : Advanced Video Codec
Format profile : [email protected]
Format settings : CABAC / 4 Ref Frames
Format settings, CABAC : Yes
Format settings, ReFrames : 4 frames
Codec ID : V_MPEG4/ISO/AVC
Duration : 45 min 14 s
Bit rate mode : Constant
Bit rate : 3 286 kb/s
Nominal bit rate : 6 000 kb/s
Width : 1 280 pixels
Height : 720 pixels
Display aspect ratio : 16:9
Frame rate mode : Constant
Frame rate : 23.976 (24000/1001) FPS
Color space : YUV
Chroma subsampling : 4:2:0
Bit depth : 8 bits
Scan type : Progressive
Bits/(Pixel*Frame) : 0.149
Stream size : 1.04 GiB (76%)
Language : English
Default : Yes
Forced : No
Color range : Limited
Color primaries : BT.709
Transfer characteristics : BT.709
Matrix coefficients : BT.709

Audio #1
ID : 2
Format :
Format/Info : Free Lossless Audio Codec
Codec ID : A_FLAC
Duration : 45 min 14 s
Bit rate mode : Variable
Bit rate : 380 kb/s
Channel(s) : 2 channels
Channel layout : L R
Sampling rate : 48.0 kHz
Frame rate : 11.719 FPS (4096 SPF)
Bit depth : 16 bits
Compression mode : Lossless
Stream size : 123 MiB (9%)
Title : MVO - AniUA
Writing library : libFLAC 20080709 (UTC 2008-07-09)
Language : Ukrainian
Default : Yes
Forced : No

Audio #2
ID : 3
Format : E-AC-3
Format/Info : Enhanced AC-3
Commercial name : Dolby Digital Plus
Codec ID : A_EAC3
Duration : 45 min 14 s
Bit rate mode : Constant
Bit rate : 640 kb/s
Channel(s) : 6 channels
Channel layout : L R C LFE Ls Rs
Sampling rate : 48.0 kHz
Frame rate : 31.250 FPS (1536 SPF)
Compression mode : Lossy
Stream size : 207 MiB (15%)
Language : English
Service kind : Complete Main
Default : No
Forced : No

Text #1
ID : 4
Format : UTF-8
Codec ID : S_TEXT/UTF8
Codec ID/Info : UTF-8 Plain Text
Duration : 44 min 47 s
Bit rate : 75 b/s
Count of elements : 1010
Stream size : 24.6 KiB (0%)
Title : SDH
Language : English
Default : No
Forced : No

Text #2
ID : 5
Format :
Codec ID : S_TEXT/
Codec ID/Info : Advanced Sub Station Alpha
Duration : 2 s 0 ms
Bit rate : 228 b/s
Count of elements : 1
Compression mode : Lossless
Stream size : 57.0 Bytes (0%)
Language : Ukrainian
Default : Yes
Forced : No
Скріншоти








Джерело: та AniUA
Особиста оцінка: 8 - мені сподобалося


Авторський реліз (завантажувати можна без реєстрації)
 Трекер:    Зареєстрований   

Завантажити / скачати серіал українською



відео для новачків



 Зареєстрований:   2019-04-28 11:37
 Розмір:   15.5 GB 
 Оцінка серіалу:   8.8/10 (Голосів: 12)
   
GoDLiKeR20 
Свій


З нами з: 21.06.13
Востаннє: 11.08.19
Повідомлень: 72

2019-01-26 17:51  
Як переклад? 1080 буде?
Anonymous 







2019-01-26 18:11  
GoDLiKeR20 написано:
Як переклад?

нормальний

GoDLiKeR20 написано:
1080 буде?

я робити не буду.

Anonymous 







2019-04-28 11:42  
Додано серії 3-13.
Повний сезон.

Дивіться та завантажуйте нові серії серіалів на сайті студії AniUA.

Ваш часовий пояс: GMT + 2 Години

Нова тема   Відповісти