Інуяшікі (Серії 1 з 11) / Inuyashiki (2018) 720p Jap | sub Ukr

Нові коментарі

Нова тема   Відповісти
Останній раз роздавалося Mitsuruki (2019-02-18)
Автор Повідомлення
Mitsuruki 
VIP


З нами з: 27.09.17
Востаннє: 18.02.19
Повідомлень: 293

2019-01-24 22:42  
Інуяшікі (Серії 1 з 11) / Inuyashiki (2018) 720p Jap | sub Ukr

Інуяшікі (Серії 1 з 11) / Inuyashiki (2018) 720p Jap | sub Ukr


Жанр: драма, фантастика, екшн
Країна: Японія



Кінокомпанія: Mappa
Режисер: Сато Кеічі
Сюжет:
Наш головний герой - Ічіро Інуяшікі, порядний 58-річний дідок що живе з дружиною та двома дітьми. Не дивлячись на це, його життя не можна назвати дуже щасливим, бо оточуючі ставлять до нього як до жалюгідного стариганя. Після того як він дізнався про те що в нього рак, його та незнайомого хлопця поряд збиває іншопланетна тарілка. Дивом виживши, Ічіро відчуває себе набагато здоровішим та відкриває у собі неймовірні здібності

До роздачі додана окрема папка з субтитрами (на прохання глядачів)
Список серій:
TBD
Тривалість: Одна серія на 23 хвилини
Якість:
Відео:
кодек:
розмір кадру: 1280 х 720
бітрейт: 1800 кб/с

Аудіо:
мова: японська
переклад: оригінал
кодек: 2.0
бітрейт: 125 кб/с

Субтитри:
мова: українська
тип: програмні (м'які)
формат: *.
Info
General
Unique ID : 57243779037331681036849636413320261365 (0x2B10C03598362F4E5398C55D30E0EEF5)
Complete name : E:\Video\Inuyashiki [Mitsuruki]\Інуяшікі 1 серія (укр).
Format :
Format version : Version 4
File size : 297 MiB
Duration : 22 min 50 s
Overall bit rate mode : Variable
Overall bit rate : 1 819 kb/s
Encoded date : UTC 2019-01-24 20:21:58
Writing application : v30.1.0 ('Forever And More') 64-bit
Writing library : libebml v1.3.6 + v1.4.9
Attachments : OpenSans-Semibold.ttf

Video
ID : 1
Format : AVC
Format/Info : Advanced Video Codec
Format profile : [email protected]
Format settings : CABAC / 5 Ref Frames
Format settings, CABAC : Yes
Format settings, ReFrames : 5 frames
Codec ID : V_MPEG4/ISO/AVC
Duration : 22 min 49 s
Bit rate mode : Variable
Bit rate : 1 692 kb/s
Maximum bit rate : 4 500 kb/s
Width : 1 280 pixels
Height : 720 pixels
Display aspect ratio : 16:9
Frame rate mode : Constant
Frame rate : 23.976 (24000/1001) FPS
Color space : YUV
Chroma subsampling : 4:2:0
Bit depth : 8 bits
Scan type : Progressive
Bits/(Pixel*Frame) : 0.077
Stream size : 276 MiB (93%)
Default : Yes
Forced : No
Color range : Limited
Color primaries : BT.709
Transfer characteristics : BT.709
Matrix coefficients : BT.709

Audio
ID : 2
Format : LC
Format/Info : Advanced Audio Codec Low Complexity
Codec ID : A_AAC-2
Duration : 22 min 49 s
Bit rate : 125 kb/s
Channel(s) : 2 channels
Channel layout : L R
Sampling rate : 48.0 kHz
Frame rate : 46.875 FPS (1024 SPF)
Compression mode : Lossy
Stream size : 20.5 MiB (7%)
Default : Yes
Forced : No

Text
ID : 3
Format :
Codec ID : S_TEXT/
Codec ID/Info : Advanced Sub Station Alpha
Duration : 22 min 40 s
Bit rate : 109 b/s
Count of elements : 287
Compression mode : Lossless
Stream size : 18.2 KiB (0%)
Title : Mitsuruki
Language : Ukrainian
Default : Yes
Forced : Yes
Скріншоти




Джерело: Переклади Mitsuruki (переклад: Vova_SS, Zulka_Chyan, Kettle)
Особиста оцінка:
У цьому трохи дивному, на перший погляд, аніме описуються важливі соціальні проблеми та конфлікт власних та моральних інтересів. Дивлячись його, починаєш потроху звикати до того що головним персонажем є механізований інопланетний начинений тоннами зброї... дід? Нам теж знадобилось кілька секунд, щоб усвідомити що таке дійсно прийшло комусь у голову, але не зважаючи на це, аніме дійсно якісне та нешаблонне. Однозначно вартує того щоб поповнити вашу колекцію переглянутих тайтлів.


Золотий реліз (завантажене не впливає на рейтинг)
 Трекер:    Зареєстрований   

Завантажити / скачати аніме українською



відео для новачків



 Зареєстрований:   2019-01-24 22:42
 Розмір:   297 MB 
 Оцінка аніме:   10/10 (Голосів: 1)
   
Ваш часовий пояс: GMT + 2 Години

Нова тема   Відповісти