Оверлорд / Overlord (2018) 1080p Ukr/Eng | Sub Eng

Нові коментарі

Нова тема   Відповісти
Останній раз роздавалося antik_2008 (2019-07-17)
Автор Повідомлення
antik_2008 
Релізер і модератор відео


З нами з: 20.10.08
Востаннє: 18.07.19
Повідомлень: 2134

2019-01-24 22:31  
Оверлорд / Overlord (2018) 1080p Ukr/Eng | Sub Eng

Оверлорд / Overlord (2018) 1080p Ukr/Eng | Sub Eng

Альтернативний постер:

Оверлорд / Overlord (2018) 1080p Ukr/Eng | Sub Eng


Жанр: бойовик, військовий, детектив, трилер, жахи, фантастика
Країна: США, Канада





Кінокомпанія: Paramount Pictures, Bad Robot
Режисер: Джуліус Ейвері
Актори: Йован Адепо, Вайатт Расселл, Йохан Філіп Асбек, Джон Магаро, Йен де Кестекер, Джейкоб Андерсон, Домінік Епплвайт, Бокім Вудбайн, Хорхе Леон Мартінес

Сюжет:
Війна дуже сильно змінює людей. Якщо ще вчора ти міг гуляти зі своїм собакою у дворі або косити свій газон, то зараз ти повинен убивати людей, інакше сам загинеш. День Д – це один із найбільш пам'ятних днів Другої Світової війни. Це операція "Оверлорд" – висадка союзних військ у Нормандії, Франція, з метою вигнати нацистів із окупованих територій. У двох американських десантників було унікальне завдання. Вони мали проникнути в нацистське селище, щоб знищити їх радіощоглу. Але те, що диверсанти знайшли в селі, їх шокувало. Нацисти проводили багато експериментів над людьми, що призвело до створення чудовиськ. Треба знищити це місце, щоб більше жодна людина не постраждала.


Тривалість: 01:49:47
Якість: 1080p

Відео:
кодек:
розмір кадру: 1920x800
бітрейт: 20,4 Мб/с

Аудіо # 1:
мова: українська
переклад: професійний дубльований
кодек: 5.1
бітрейт: 384 кб/с
примітка: є діалоги німецькою

Аудіо # 2:
мова: англійська
переклад: оригінал
кодек: 5.1
бітрейт: 640 кб/с

Джерело озвучення:


Субтитри (Forced):
мова: українська
тип: програмні (м'які)
формат: *.srt

Субтитри (SDH):
мова: англійська
тип: програмні (м'які)
формат: *.srt
Info
Код:
General
Complete name                            : Overlord (2018) 1080p [Ukr_Eng] [ViDeO_Hurtom].
Format                                   :
Format version                           : Version 4
File size                                : 16.4 GiB
Duration                                 : 1 h 49 min
Overall bit rate                         : 21.4 Mb/s
Movie name                               : Overlord (2018) 1080p [UKR_ENG] [ViDeO_Hurtom]
Encoded date                             : UTC 2019-07-17 08:46:52
Writing application                      : v30.1.0 ('Forever And More') 64-bit
Writing library                          : libebml v1.3.6 + v1.4.9

Video
ID                                       : 1
Format                                   : AVC
Format/Info                              : Advanced Video Codec
Format profile                           : [email protected]
Format settings                          : CABAC / 5 Ref Frames
Format settings, CABAC                   : Yes
Format settings, RefFrames               : 5 frames
Codec ID                                 : V_MPEG4/ISO/AVC
Duration                                 : 1 h 49 min
Bit rate                                 : 20.4 Mb/s
Width                                    : 1 920 pixels
Height                                   : 800 pixels
Display aspect ratio                     : 2.40:1
Frame rate mode                          : Constant
Frame rate                               : 23.976 (24000/1001) FPS
Color space                              : YUV
Chroma subsampling                       : 4:2:0
Bit depth                                : 8 bits
Scan type                                : Progressive
Bits/(Pixel*Frame)                       : 0.553
Stream size                              : 15.6 GiB (95%)
Title                                    : MTeam
Writing library                          : core 157 r2938 2b00a84 [email protected] Mod
Encoding settings                        : cabac=1 / ref=5 / deblock=1:-3:-3 / analyse=0x3:0x133 / me=umh / subme=10 / psy=1 / psy_rd=1.05:0.00 / mixed_ref=1 / me_range=24 / chroma_me=1 / trellis=2 / 8x8dct=1 / cqm=0 / deadzone=21,11 / fast_pskip=0 / chroma_qp_offset=-2 / threads=12 / lookahead_threads=2 / sliced_threads=0 / nr=0 / decimate=0 / interlaced=0 / bluray_compat=0 / constrained_intra=0 / bframes=8 / b_pyramid=2 / b_adapt=2 / b_bias=0 / direct=3 / weightb=1 / open_gop=0 / weightp=2 / keyint=250 / keyint_min=24 / scenecut=40 / intra_refresh=0 / rc_lookahead=250 / rc=crf / mbtree=0 / crf=16.8 / qcomp=0.60 / qpmin=0 / qpmax=69 / qpstep=4 / vbv_maxrate=62500 / vbv_bufsize=78125 / crf_max=0.0 / nal_hrd=none / filler=0 / ip_ratio=1.30 / pb_ratio=1.20 / aq=3:0.80
Language                                 : English
Default                                  : Yes
Forced                                   : No
Color range                              : Limited
Color primaries                          : BT.709
Matrix coefficients                      : BT.709

Audio #1
ID                                       : 2
Format                                   : AC-3
Format/Info                              : Audio Coding 3
Commercial name                          : Dolby Digital
Codec ID                                 : A_AC3
Duration                                 : 1 h 49 min
Bit rate mode                            : Constant
Bit rate                                 : 384 kb/s
Channel(s)                               : 6 channels
Channel layout                           : L R C LFE Ls Rs
Sampling rate                            : 48.0 kHz
Frame rate                               : 31.250 FPS (1536 SPF)
Bit depth                                : 16 bits
Compression mode                         : Lossy
Stream size                              : 301 MiB (2%)
Title                                    : , 6 ch, 384 Кбт/с
Language                                 : Ukrainian
Service kind                             : Complete Main
Default                                  : Yes
Forced                                   : No

Audio #2
ID                                       : 3
Format                                   : AC-3
Format/Info                              : Audio Coding 3
Commercial name                          : Dolby Digital
Codec ID                                 : A_AC3
Duration                                 : 1 h 49 min
Bit rate mode                            : Constant
Bit rate                                 : 640 kb/s
Channel(s)                               : 6 channels
Channel layout                           : L R C LFE Ls Rs
Sampling rate                            : 48.0 kHz
Frame rate                               : 31.250 FPS (1536 SPF)
Bit depth                                : 16 bits
Compression mode                         : Lossy
Stream size                              : 503 MiB (3%)
Title                                    : , 6 ch, 640 Кбт/с
Language                                 : English
Service kind                             : Complete Main
Default                                  : No
Forced                                   : No

Text #1
ID                                       : 4
Format                                   : UTF-8
Codec ID                                 : S_TEXT/UTF8
Codec ID/Info                            : UTF-8 Plain Text
Duration                                 : 1 h 22 min
Bit rate                                 : 4 b/s
Count of elements                        : 94
Stream size                              : 3.01 KiB (0%)
Title                                    : Forced
Language                                 : Ukrainian
Default                                  : Yes
Forced                                   : No

Text #2
ID                                       : 5
Format                                   : UTF-8
Codec ID                                 : S_TEXT/UTF8
Codec ID/Info                            : UTF-8 Plain Text
Duration                                 : 1 h 42 min
Bit rate                                 : 49 b/s
Count of elements                        : 1447
Stream size                              : 37.3 KiB (0%)
Title                                    : SDH
Language                                 : English
Default                                  : No
Forced                                   : No
Скріншоти
















Підтримати купівлю інших фільмів можна тут.

Подяка пану EvGaS за форсовані субтитри.

Джерело:
Особиста оцінка: 0 - не дивився


Золотий реліз (завантажене не впливає на рейтинг)
 Трекер:    Зареєстрований   

Завантажити / скачати фільм українською



відео для новачків



 Зареєстрований:   2019-07-17 12:04
 Розмір:   16.4 GB 
 Оцінка фільму:   8.3/10 (Голосів: 20)
   
Інші релізи
   Оверлорд / Overlord (2018) 1080p H.265 Ukr/Eng | Sub Eng -Star-Lord-  8 / 1   6.18 GB   2019-07-17 19:25 
   Оверлорд / Overlord (2018) AVC Ukr/Eng | Sub Eng 11FrYkT  42 / 5   1.98 GB   2019-07-17 09:09 
   Оверлорд / Overlord (2018) 720p Ukr/Eng | Sub Eng 11FrYkT  11 / 1   5.08 GB   2019-07-17 07:14 
   Оверлорд / Overlord (2018) Remux 1080p Ukr/Eng | Sub Eng staf777  8 / 0   24.18 GB   2019-02-15 14:29 
   Оверлорд / Overlord (2018) Ukr/Eng antik_2008  17 / 0   2.08 GB   2019-02-15 01:51 
antik_2008 
Релізер і модератор відео


З нами з: 20.10.08
Востаннє: 18.07.19
Повідомлень: 2134

2019-02-14 20:42  
mishakhmaruk
antik_2008 написано:

Субтитри (Forced-Google):
мова: українська
тип: програмні (м'які)
формат: *.srt

Вони вже в релізі )))

olyx 
Відео Гуртом - підтримка та поширення
Відео Гуртом - підтримка та поширення


З нами з: 26.01.10
Востаннє: 17.07.19
Повідомлень: 245

2019-02-14 23:07  
примітка: є діалоги німецькою без дубляжу
Чи багато таких? Дякую

11FrYkT 
Модератор відео


З нами з: 20.02.11
Востаннє: 17.07.19
Повідомлень: 6046

2019-02-14 23:53  
91
Mr.Emm 
Поважний учасник


З нами з: 03.08.08
Востаннє: 17.07.19
Повідомлень: 234

2019-02-15 02:26  
Цитата:
переклад: професійний дубльований

Цитата:
примітка: є діалоги німецькою без дубляжу


Дивують подібні речі. Це аж ніяк не професійно.

Яка різниця між українською, англійською та німецькою?

vovang6 
Поважний учасник


З нами з: 27.08.12
Востаннє: 17.07.19
Повідомлень: 201

2019-02-19 10:57  
Непоганий фільм, для одноразового перегляду годиться.
Після перегляду з'явилось бажання пограти в "Wolfenstein"=)
6/10.

antik_2008 
Релізер і модератор відео


З нами з: 20.10.08
Востаннє: 18.07.19
Повідомлень: 2134

2019-07-17 12:04  
17.07.2019 Роздачу оновлено


Замінив доріжку на 5.1 @ 384 kbps



Ваш часовий пояс: GMT + 2 Години

Нова тема   Відповісти